Today is a free download without charge Download

Мания величия / La folie des grandeurs (1971) BDRip

Reply to topic
 
Author
Message

Omen ®

Longevity: 8 years 11 months

Posts: 181086

Торрент-статистика

Post 09-Jan-2013 04:44

[Quote]

-Мания величия / La folie des grandeurs (1971) BDRip- Русское название: Мания величия
Оригинальное название: La folie des grandeurs
Год выпуска: 1971
Страна: Франция, Испания, Италия, Германия (ФРГ)
Жанр: комедия, история
Перевод: Профессиональный (многоголосый закадровый)-
Премьера (РФ): 8 декабря 1971
Режиссер: Жерар Ури
Актеры: Луи де Фюнес, Ив Монтан, Алис Саприч, Карин Шуберт, Альберто де Мендоса, Дон Хайме де Мора-и-Арагон, Эдуардо Фахардо, Антонио Пика, Хоакин Солис, Венантино Венантини, Габриэле Тинти, Поль Пребуа

Описание фильма:
Луи Де Фюнес в роли жадного сборщика налогов, обворовывающего короля. Его слугу Рюи Блаза играет Ив Монтан. Разбитной веселый мошенник постоянно издевается над хозяином и строит ему козни. Так он использует неописуемую алчность и жажду лести человека, считающего, что «бедные должны быть бедными, а богатые должны стать еще богаче», и подбивает Де Фюнеса соблазнить испанскую королеву, на которую сам положил глаз.-Продолжительность: 01:49:05
Качество видео: BDRip
Видеокодек: XviD
Формат: AVI
Битрейт видео: ~1683 kbps avg
Размер кадра: 720x384 (1,85:1)
Аудиокодек: АСЗ
Битрейт аудио:
Аудио: #1: русский, 48 kHz, АСЗ, 2 ch, ~192 .00 kbps avg / ТК «TВ Центр»
Аудио: #2: русский, 48 kHz, АСЗ, 2 ch, ~192 .00 kbps avg / «ДВД Магия» / (отдельным файлом)
Аудио: #3: русский, 48 kHz, АСЗ, 2 ch, ~192 .00 kbps avg / «ОРТ» / (отдельным файлом)
Аудио: #4: французский , 48 kHz, АСЗ, 2 ch, ~192 .00 kbps avg / (отдельным файлом)
Субтитры: русские (отдельным файлом)

MediaInfo:

Формат : AVI
Формат/Информация : Audio Video Interleave
Размер файла : 1,43 Гбайт
Продолжительность : 1 ч. 49 м.
Общий поток : 1874 Кбит/сек
Программа кодирования : VirtualDubMod 1.5.10.3
Видео
Идентификатор : 0
Формат : MPEG-4 Visual
Профиль формата : Advanced [email protected]
Параметр BVOP формата : 1
Параметр QPel формата : Нет
Параметр GMC формата : Без точки перехода
Параметр матрицы формата : Выборочная
Идентификатор кодека : XVID
Идентификатор кодека/Подсказка : XviD
Продолжительность : 1 ч. 49 м.
Битрейт : 1673 Кбит/сек
Ширина : 720 пикселей
Высота : 384 пикселя
Соотношение сторон : 1,85:1
Частота кадров : 24,000 кадра/сек
Цветовое пространство : YUV
Субдискретизация насыщенности : 4:2:0
Битовая глубина : 8 бит
Тип развёртки : Прогрессивная
Метод сжатия : С потерями
Бит/(Пиксели*Кадры) : 0.252
Размер потока : 1,27 Гбайт (89%)
Библиотека кодирования : XviD 65
Аудио
Идентификатор : 1
Формат : AC-3
Формат/Информация : Audio Coding 3
Расширение режима : CM (complete main)
Параметр Endianness формата : Big
Идентификатор кодека : 2000
Продолжительность : 1 ч. 49 м.
Вид битрейта : Постоянный
Битрейт : 192 Кбит/сек
Каналы : 2 канала
Расположение каналов : Front: L R
Частота : 48,0 КГц
Битовая глубина : 16 бит
Метод сжатия : С потерями
Размер потока : 150 Мбайт (10%)
Выравнивание : Разделение по промежуткам
Продолжительность промежутка : 42 мс. (1,00 видеокадр)
Время предзагрузки промежутка : 500 мс.
Заголовок : 'ТВ-Центр'
**********************
Формат : AC-3
Формат/Информация : Audio Coding 3
Размер файла : 150 Мбайт
Продолжительность : 1 ч. 49 м.
Режим общего битрейта : Постоянный
Общий поток : 192 Кбит/сек
Аудио
Формат : AC-3
Формат/Информация : Audio Coding 3
Расширение режима : CM (complete main)
Параметр Endianness формата : Big
Продолжительность : 1 ч. 49 м.
Вид битрейта : Постоянный
Битрейт : 192 Кбит/сек
Каналы : 2 канала
Расположение каналов : Front: L R
Частота : 48,0 КГц
Битовая глубина : 16 бит
Метод сжатия : С потерями
Размер потока : 150 Мбайт (100%)
Формат : AC-3
Формат/Информация : Audio Coding 3
Размер файла : 150 Мбайт
Продолжительность : 1 ч. 49 м.
Режим общего битрейта : Постоянный
Общий поток : 192 Кбит/сек
Аудио
Формат : AC-3
Формат/Информация : Audio Coding 3
Профиль формата : Dolby Digital
Расширение режима : CM (complete main)
Параметр Endianness формата : Big
Продолжительность : 1 ч. 49 м.
Вид битрейта : Постоянный
Битрейт : 192 Кбит/сек
Каналы : 2 канала
Расположение каналов : Front: L R
Частота : 48,0 КГц
Битовая глубина : 16 бит
Метод сжатия : С потерями
Размер потока : 150 Мбайт (100%)
Формат : AC-3
Формат/Информация : Audio Coding 3
Размер файла : 150 Мбайт
Продолжительность : 1 ч. 49 м.
Режим общего битрейта : Постоянный
Общий поток : 192 Кбит/сек
Аудио
Формат : AC-3
Формат/Информация : Audio Coding 3
Расширение режима : CM (complete main)
Параметр Endianness формата : Big
Продолжительность : 1 ч. 49 м.
Вид битрейта : Постоянный
Битрейт : 192 Кбит/сек
Каналы : 2 канала
Расположение каналов : Front: L R
Частота : 48,0 КГц
Битовая глубина : 16 бит
Метод сжатия : С потерями
Размер потока : 150 Мбайт (100%)
Формат : SubRip
Размер файла : 65,2 Кбайт
Текст
Формат : SubRip
Метод сжатия : Без потерь
Скриншоты:
         
Время раздачи: 24/7
Other forum [Profile] [PM]
Similar theme
Forum Topic Author Torrent Replies Last Post
./templates/default/images/folder_dl.gif Обучающее видео Николай Ягодкин | Kypc-интeнсив «Развитие памяти и внимания» (2013) PCRec [H.264] Omen
1 | 0

0 | 2676

38

2016-12-30 01:00
Omen Latest
Display posts from previous:    
Reply to topic

The time now is: Today 10:24

All times are GMT + 3 Hours



You cannot post new topics in this forum
You cannot reply to topics in this forum
You cannot edit your posts in this forum
You cannot delete your posts in this forum
You cannot vote in polls in this forum
You cannot attach files in this forum
You cannot download files in this forum