Today is a free download without charge Download

Второй трагический Фантоцци / Il Secondo tragico Fantozzi (1976) DVDRip

Reply to topic
 
Author
Message

Omen ®

Longevity: 8 years 11 months

Posts: 181086

Торрент-статистика

Post 09-Jan-2013 04:44

[Quote]

-Второй трагический Фантоцци / Il Secondo tragico Fantozzi (1976) DVDRip- Русское название: Второй трагический Фантоцци
Оригинальное название: Il Secondo tragico Fantozzi
Год выпуска: 1976
Жанр: Комедия
Выпущено: Италия / Rizzoli Film S.P.A.-Описание фильма:
Его жена уехала к маме. А он решил устроить мальчишник: друзья, пиво, девушки, танцы. Через три часа пиво кончилось, девушки разделись. А жена вернулась за любимым зонтиком…-Режиссер: Лучиано Салче
Актеры: Паоло Вилладжио, Анна Маццамаура, Джиджи Редер, Уго Болонья, Мауро Вестри, Плинио Фернандо, Антонио Фаа' Ди Бруно, Ньетта Зокки, Паоло Паолони, Джузеппе Анатрелли, Лью Босисио-Продолжительность: 01:44:59
Перевод: Многоголосый закадровый

Дата мировой премьеры: 15 апреля 1976
Дата российской премьеры: 28 октября 2008, «Мастер Тэйп»
Ограничения: 16+-Видеокодек: Xvid
Битрейт видео: ~1800 Кбит/с
Размер кадра: 704 x 384
Качество видео: DVDRip
Аудио: AC3, 2ch, 192 Кбит/с

Сэмпл

Медиаинфо

General
Complete name : G:\ Il.secondo.tragico.Fantozzi.1976.XviD.DVDRip.avi
Format : AVI
Format/Info : Audio Video Interleave
File size : 1.47 GiB
Duration : 1h 44mn
Overall bit rate : 2 002 Kbps
Writing application : VirtualDubMod 1.5.10.2 (build 2540/release)
Writing library : VirtualDubMod build 2540/release
Video
ID : 0
Format : MPEG-4 Visual
Format profile : Advanced [email protected]
Format settings, BVOP : Yes
Format settings, QPel : No
Format settings, GMC : No warppoints
Format settings, Matrix : Default (H.263)
Codec ID : XVID
Codec ID/Hint : XviD
Duration : 1h 44mn
Bit rate : 1 800 Kbps
Width : 704 pixels
Height : 384 pixels
Display aspect ratio : 16:9
Frame rate : 25.000 fps
Resolution : 8 bits
Colorimetry : 4:2:0
Scan type : Progressive
Bits/(Pixel*Frame) : 0.266
Stream size : 1.32 GiB (90%)
Writing library : XviD 1.2.1 (UTC 2008-12-04)
Audio
ID : 1
Format : AC-3
Format/Info : Audio Coding 3
Codec ID : 2000
Duration : 1h 44mn
Bit rate mode : Constant
Bit rate : 192 Kbps
Channel(s) : 2 channels
Channel positions : Front: L R
Sampling rate : 48.0 KHz
Stream size : 144 MiB (10%)
Alignment : Split accross interleaves
Interleave, duration : 40 ms (1.00 video frame)
Interleave, preload duration : 500 ms
Скриншоты:
       
Время раздачи: 24/7 - круглосуточно
Other forum [Profile] [PM]
Display posts from previous:    
Reply to topic

The time now is: Today 14:05

All times are GMT + 3 Hours



You cannot post new topics in this forum
You cannot reply to topics in this forum
You cannot edit your posts in this forum
You cannot delete your posts in this forum
You cannot vote in polls in this forum
You cannot attach files in this forum
You cannot download files in this forum