Today is a free download without charge Download

Следствие с риском для жизни / L\'avvertimento (1980) DVDRip

Reply to topic
 
Author
Message

Omen ®

Longevity: 8 years 11 months

Posts: 181086

Торрент-статистика

Post 09-Jan-2013 04:28

[Quote]

-Следствие с риском для жизни / L'avvertimento (1980) DVDRip- Русское название: Следствие с риском для жизни
Оригинальное название: L'avvertimento
Год выпуска: 1980
Страна: Италия
Жанр: криминал
Перевод: Профессиональный: (полное дублирование)
Русские субтитры: нет-
Премьера: 15 августа 1980
Режиссер: Дамиано Дамиани
Актеры: Мартин Болсам, Джулиано Джемма, Джон Карлсен, Гвидо Леонтини, Марчелло Мандо, Франко Одоарди, Джулиан Дженкинс, Лаура Троттер, Джанкарло Занетти

Описание фильма:
Принципиальный комиссар полиции Бареззи неожиданно обнаруживает на своём банковском счету невесть откуда взявшуюся крупную сумму денег. Вскоре он получает анонимный телефонный звонок, где неизвестный голос «рекомендует» ему отработать полученный авансом «гонорар» соответствующим образом. Вскоре Бареззи выясняет, что деньги ему были перечислены за то, чтобы он закрывал глаза на продажность ряда итальянских чиновников из высших эшелонов власти. Он решает прибегнуть к двойной игре и вывести на чистую воду прогнивших политикано, тесно связанных с мафией.
-Продолжительность: 01:45:00
Качество видео: DVDRip
Формат: AVI
Видеокодек: DivX
Битрейт видео: ~ 830 kbps avg, 25,000 fps
Размер кадра: 496х288 (1.722)
Аудиокодек: MP3
Аудио: русский: 48 kHz, MP3, 2 ch, 128 kbps
Субтитры: нет

MediaInfo:

Format : AVI
Format/Info : Audio Video Interleave
File size : 727 MiB
Duration : 1h 45mn
Overall bit rate : 968 Kbps
Writing application : VirtualDubMod 1.5.10.2 (build 2540/release)
Writing library : VirtualDubMod build 2540/release
Video
ID : 0
Format : MPEG-4 Visual
Format settings, BVOP : 1
Format settings, QPel : No
Format settings, GMC : No warppoints
Format settings, Matrix : Default (H.263)
Muxing mode : Packed bitstream
Codec ID : DX50
Codec ID/Hint : DivX 5
Duration : 1h 45mn
Bit rate : 830 Kbps
Width : 496 pixels
Height : 288 pixels
Display aspect ratio : 1.722
Frame rate : 25.000 fps
Color space : YUV
Chroma subsampling : 4:2:0
Bit depth : 8 bits
Scan type : Progressive
Compression mode : Lossy
Bits/(Pixel*Frame) : 0.232
Stream size : 623 MiB (86%)
Writing library : DivX 5.2.1 Alpha (UTC 2004-09-08)
Audio
ID : 1
Format : MPEG Audio
Format version : Version 1
Format profile : Layer 3
Mode : Joint stereo
Mode extension : MS Stereo
Codec ID : 55
Codec ID/Hint : MP3
Duration : 1h 45mn
Bit rate mode : Constant
Bit rate : 128 Kbps
Channel(s) : 2 channels
Sampling rate : 44.1 KHz
Compression mode : Lossy
Stream size : 96.1 MiB (13%)
Alignment : Split accross interleaves
Interleave, duration : 40 ms (1.00 video frame)
Interleave, preload duration : 500 ms
Скриншоты:
         
         
24/7
Other forum [Profile] [PM]
Display posts from previous:    
Reply to topic

The time now is: Today 14:13

All times are GMT + 3 Hours



You cannot post new topics in this forum
You cannot reply to topics in this forum
You cannot edit your posts in this forum
You cannot delete your posts in this forum
You cannot vote in polls in this forum
You cannot attach files in this forum
You cannot download files in this forum