Today is a free download without charge Download

Трактористы (1939) HDTVRip

Reply to topic
 
Author
Message

Omen ®

Longevity: 6 years 5 months

Posts: 181112

Торрент-статистика

Post 09-Jan-2013 03:56

[Quote]

-Трактористы (1939) HDTVRip- Русское название: Трактористы
Год выпуска: 1939
Жанр: Комедия, Драма
Описание фильма:
Демобилизованный танкист-дальневосточник Клим Ярко едет в украинский колхоз, где живет давно понравившаяся ему на фотографии в газете знатная трактористка Марьяна Бажан. Но не так-то просто завоевать сердце гордой дивчины… А тут ещё Марьяна договаривается с силачом, лодырем и баламутом Назаром Думой, чтобы тот на правах её якобы жениха отгонял назойливых поклонников. В сложную ситуацию попадает простодушный Клим, но в конце концов искренностью и трудолюбием завоевывает симпатии всего колхоза и любовь знаменитой Марьяны. Подлинная версия фильма 1939 года с оригинальным звуком (кроме прочего, со строкой в финальной песне: «Когда нас в бой пошлёт товарищ Сталин…») и изображением (без замазанных названий на тракторах «Сталинец» и заменённых и вырезанных портретов вождя в нескольких кадрах). Без реставрации.
Режиссер: Иван Пырьев
Актеры: Марина Ладынина, Николай Крючков, Борис Андреев, Степан Каюков, Пётр Алейников, Владимир Колчин, Ольга Боровикова, Р. Днепрова-Чайка, П. Валерианов, Андрей Долинин, Пётр Савин, Артавазд Кефчиян, Иван Матвеев
Продолжительность: 01:22:55

Видеокодек: Xvid
Битрейт видео: ~2359 kbps
Размер кадра: 720x544
Качество видео: HDTVRip
Аудиокодек: MP3, 2ch
Битрейт аудио: 128.00 kbps

MI

Общее
Полное имя : C:\Users\1\Downloads\traktoristy.avi
Формат : AVI
Формат/Информация : Audio Video Interleave
Размер файла : 1,45 Гбайт
Продолжительность : 1 ч. 22 м.
Общий поток : 2500 Кбит/сек
Программа кодирования : MEncoder SVN-r22963
Библиотека кодирования : MPlayer
Видео
Идентификатор : 0
Формат : MPEG-4 Visual
Профиль формата : [email protected]
Параметр BVOP формата : Нет
Параметр QPel формата : Нет
Параметр GMC формата : Без точки перехода
Параметр матрицы формата : Default (H.263)
Идентификатор кодека : XVID
Идентификатор кодека/Подсказка : XviD
Продолжительность : 1 ч. 22 м.
Битрейт : 2360 Кбит/сек
Ширина : 720 пикселей
Высота : 544 пикселя
Соотношение сторон : 4:3
Частота кадров : 25,000 кадров/сек
Цветовое пространство : YUV
Субдискретизация насыщенности : 4:2:0
Битовая глубина : 8 бит
Тип развёртки : Прогрессивная
Метод сжатия : С потерями
Бит/(Пиксели*Кадры) : 0.241
Размер потока : 1,37 Гбайт (94%)
Библиотека кодирования : Lavc51.40.2
Аудио
Идентификатор : 1
Формат : MPEG Audio
Версия формата : Version 1
Профиль формата : Layer 3
Идентификатор кодека : 55
Идентификатор кодека/Подсказка : MP3
Продолжительность : 1 ч. 22 м.
Вид битрейта : Постоянный
Битрейт : 128 Кбит/сек
Каналы : 2 канала
Частота : 44,1 КГц
Метод сжатия : С потерями
Размер потока : 75,9 Мбайт (5%)
Выравнивание : Соединение по промежуткам
Продолжительность промежутка : 26 мс. (0,65 видеокадр)
Время предзагрузки промежутка : 522 мс.
Скриншоты:
       
       
Other forum [Profile] [PM]
Display posts from previous:    
Reply to topic

The time now is: Today 13:57

All times are GMT + 3 Hours



You cannot post new topics in this forum
You cannot reply to topics in this forum
You cannot edit your posts in this forum
You cannot delete your posts in this forum
You cannot vote in polls in this forum
You cannot attach files in this forum
You cannot download files in this forum