Сегодня идет свободное скачивание без начисления Download

Председатель (1964) DVDRip

Ответить на тему
 
Автор
Сообщение

Omen ®

Стаж: 5 лет 10 месяцев

Сообщений: 184329

Торрент-статистика

Пост 09-Янв-2013 03:52

[Цитировать]

-Председатель (1964) DVDRip- Русское название: Председатель
Год выпуска: 1964
Жанр: Драма
Описание фильма:
Фронтовик Егор Трубников возвращается в родную деревню восстанавливать разоренное, нищее хозяйство. Тяжко ему приходится - почти как на войне. Став председателем, он взваливает на себя бремя ответственности не только за колхозные дела, но и за судьбы таких близких ему людей…
Режиссер: Алексей Салтыков
Актеры: Михаил Ульянов, Иван Лапиков, Нонна Мордюкова, Вячеслав Невинный, Валентина Владимирова, Николай Парфенов, Кира Головко, Антонина Богданова, Владимир Этуш
Продолжительность: 02:35:28

Видеокодек: Xvid
Битрейт видео: ~1688 kb/s
Размер кадра: 720 x 352
Качество видео: DVDRip
Аудиокодек: MP3, 2 ch
Битрейт аудио: 128 kb/s

Награды

Премия по разделу фильмов современной тематики на ВКФ в Киеве (1966).
Лучший фильм по опросу журнала «Советский экран» в 1966 году.
Михаил Ульянов получил Ленинскую премию (1966) за исполнение роли Егора Трубникова

Дополнительная информация

Прообразом Егора Трубникова был белорусский партизан Кирилл Орловский.

MediaInfo

Общее
Полное имя : Председатель.1964.DVDRip.avi
Формат : AVI
Формат/Информация : Audio Video Interleave
Профиль формата : OpenDML
Размер файла : 1,99 Гбайт
Продолжительность : 2 ч. 35 м.
Общий поток : 1829 Кбит/сек
Программа кодирования : MEncoder SVN-r30881(20100311-gcc4.3.3)
Библиотека кодирования : MPlayer
Видео
Идентификатор : 0
Формат : MPEG-4 Visual
Профиль формата : Advanced [email protected]
Параметр BVOP формата : 2
Параметр QPel формата : Нет
Параметр GMC формата : Без точки перехода
Параметр матрицы формата : Default (H.263)
Идентификатор кодека : XVID
Идентификатор кодека/Подсказка : XviD
Продолжительность : 2 ч. 35 м.
Битрейт : 1688 Кбит/сек
Ширина : 720 пикселей
Высота : 352 пикселя
Соотношение сторон : 2,046
Соотношение сторон в оригинале : 2,045
Частота кадров : 25,000 кадров/сек
Цветовое пространство : YUV
Субдискретизация насыщенности : 4:2:0
Битовая глубина : 8 бит
Тип развёртки : Прогрессивная
Метод сжатия : С потерями
Бит/(Пиксели*Кадры) : 0.266
Размер потока : 1,83 Гбайт (92%)
Библиотека кодирования : XviD 1.2.1 (UTC 2008-12-04)
Аудио
Идентификатор : 1
Формат : MPEG Audio
Версия формата : Version 1
Профиль формата : Layer 3
Режим : Joint stereo
Расширение режима : MS Stereo
Идентификатор кодека : 55
Идентификатор кодека/Подсказка : MP3
Продолжительность : 2 ч. 35 м.
Вид битрейта : Постоянный
Битрейт : 128 Кбит/сек
Каналы : 2 канала
Частота : 44,1 КГц
Метод сжатия : С потерями
Задержка видео : 40 мс.
Размер потока : 142 Мбайт (7%)
Выравнивание : Соединение по промежуткам
Продолжительность промежутка : 26 мс. (0,65 видеокадр)
Время предзагрузки промежутка : 522 мс.
Скриншоты:          Время раздачи: С 13:00 до 21:00 (до 5 скачавших)Приятного просмотра!
Вне форума [Профиль] [ЛС]
Показать сообщения:    
Ответить на тему

Текущее время: Сегодня 03:59

Часовой пояс: GMT + 3



Вы не можете начинать темы
Вы не можете отвечать на сообщения
Вы не можете редактировать свои сообщения
Вы не можете удалять свои сообщения
Вы не можете голосовать в опросах
Вы не можете прикреплять файлы к сообщениям
Вы не можете скачивать файлы