Сегодня идет свободное скачивание без начисления Download

С.В.Д. – Союз великого дела (1927) TVRip

Ответить на тему
 
Автор
Сообщение

Omen ®

Стаж: 6 лет

Сообщений: 184329

Торрент-статистика

Пост 09-Янв-2013 03:48

[Цитировать]

-С.В.Д. – Союз великого дела (1927) TVRip- Русское название: С.В.Д. – Союз великого дела
Год выпуска: 1927
Жанр: Историческая мелодрама
Производство: СОВКИНО (Ленинградская кинофабрика)
Описание фильма:
1825 год. Карточный шулер Медокс узнает о готовящемся восстании Черниговского полка. Авантюрист смекает, что может неплохо заработать. Для того, чтобы проникнуть в общество декабристов, он использует выигранное в карты кольцо с инициалами «С. В. Д.«, выдавая эти буквы за сокращенное название »Союза великого дела». Шпиона из карточного шулера не получилось…
Режиссер: Григорий Козинцев, Леонид Трауберг
Сценарий: Юрий Тынянов, Юлиан Оксман
Актеры: Петр Соболевский, Сергей Герасимов, Олег Жаков, Янина Жеймо, Андрей Костричкин, Софья Магарилл, Николай Мичурин, Константин Хохлов, Михаил Мишель, В. Федосьев, Эмиль Галь, Александр Мельников, Людмила Семенова
Продолжительность: 01:09:27

Видеокодек: DivX 5
Битрейт видео: ~1308 kb/s
Размер кадра: 608 x 488
Качество видео: TVRip
Аудиокодек: MP3, 2 ch
Битрейт аудио: 96 kb/s

Дополнительная информация

В фильме звучат произведения М.Глинки, Э.Грига, В.-А.Моцарта, Ф.Шопена. Ф.Шуберта.
Этот фильм - один из "несохранившихся" фильмов, то есть фильмов, восстановленных благодаря старанию работников Госфильмофонда. Две финальных части этого фильма были в свое время утеряны, но киноведу Владимиру Дмитриеву удалось найти отсутствующие части (в разных странах мира) и сформировать полную версию картины. Теперь ее снова может увидеть зритель.

MediaInfo

Общее
Полное имя : С.В.Д.Союз великого дела.1927.TVRip.avi
Формат : AVI
Формат/Информация : Audio Video Interleave
Размер файла : 702 Мбайт
Продолжительность : 1 ч. 9 м.
Общий поток : 1414 Кбит/сек
Программа кодирования : VirtualDubMod 1.5.10.1 (build 2439/release)
Библиотека кодирования : VirtualDubMod build 2439/release
Видео
Идентификатор : 0
Формат : MPEG-4 Visual
Параметр BVOP формата : 1
Параметр QPel формата : Нет
Параметр GMC формата : Без точки перехода
Параметр матрицы формата : Default (H.263)
Режим смешивания : Сжатый битовый поток
Идентификатор кодека : DX50
Идентификатор кодека/Подсказка : DivX 5
Продолжительность : 1 ч. 9 м.
Битрейт : 1308 Кбит/сек
Ширина : 608 пикселей
Высота : 448 пикселей
Соотношение сторон : 4:3
Частота кадров : 25,000 кадров/сек
Цветовое пространство : YUV
Субдискретизация насыщенности : 4:2:0
Битовая глубина : 8 бит
Тип развёртки : Прогрессивная
Метод сжатия : С потерями
Бит/(Пиксели*Кадры) : 0.192
Размер потока : 650 Мбайт (93%)
Библиотека кодирования : DivX 5.2.0 (UTC 2004-07-15)
Аудио
Идентификатор : 1
Формат : MPEG Audio
Версия формата : Version 1
Профиль формата : Layer 3
Режим : Joint stereo
Идентификатор кодека : 55
Идентификатор кодека/Подсказка : MP3
Продолжительность : 1 ч. 9 м.
Вид битрейта : Постоянный
Битрейт : 96,0 Кбит/сек
Каналы : 2 канала
Частота : 32,0 КГц
Метод сжатия : С потерями
Размер потока : 47,7 Мбайт (7%)
Выравнивание : Соединение по промежуткам
Продолжительность промежутка : 40 мс. (1,00 видеокадр)
Время предзагрузки промежутка : 504 мс.
Скриншоты:          Время раздачи: С 13:00 до 21:00 (до 5 скачавших)Приятного просмотра!
Вне форума [Профиль] [ЛС]
Показать сообщения:    
Ответить на тему

Текущее время: Сегодня 15:01

Часовой пояс: GMT + 3



Вы не можете начинать темы
Вы не можете отвечать на сообщения
Вы не можете редактировать свои сообщения
Вы не можете удалять свои сообщения
Вы не можете голосовать в опросах
Вы не можете прикреплять файлы к сообщениям
Вы не можете скачивать файлы