Сегодня идет свободное скачивание без начисления Download

Будьте моим мужем (1981) [H.264] DVDRip

Ответить на тему
 
Автор
Сообщение

Omen ®

Стаж: 6 лет

Сообщений: 184329

Торрент-статистика

Пост 09-Янв-2013 03:44

[Цитировать]

-Будьте моим мужем (1981) [H.264] DVDRip-«Все по местам!!! Отдать концы!!! Деньги вперёд!!!»- Русское название: Будьте моим мужем
Год выпуска: 1981
Жанр: Драма, Мелодрама, Комедия
Страна: СССР
Производство: Киностудия «Мосфильм»
Описание фильма:
Детский врач отправляется в отпуск на Юг, где его услуги в качестве… мужа понадобились молодой и очень красивой женщине. Дело в том, что одной с ребенком ей никто сдавать квартиру в курортном городе не хотел. Нравы тогда такие были.
Вот ей и понадобился человек, который мог бы разыграть из себя ее мужа для поселения в частном секторе. Ну а как у них сложатся отношения и в других областях, зритель предпочтет узнать сам. Легкая музыкальная комедия с прекрасными актерами.
Режиссер: Алла Сурикова
Сценарий: Эдуард Акопов
Актеры: Елена Проклова, Андрей Миронов, Филипп Адамович, Нина Русланова, Наталья Крачковская, Владимир Басов, Антон Табаков, Баадур Цуладзе, Олег Анофриев, Николай Гринько, Георгий Штиль, Леонард Саркисов, Михаил Светин, Анна Варпаховская, Семен Фарада, Валентина Воилкова, Михаил Херхеулидзе
Продолжительность: 01:22:08
Субтитры: отсутствуют

Дата мировой премьеры: 1 января 1982
Релиз на DVD: 23 июня 2011, «Парадиз Медиа»
Видеокодек: MPEG-4 AVC/H.264
Битрейт видео: ~2499 Кбит/сек
Размер кадра: 720x512
Качество видео: DVDRip Полная реставрация изображения и звука от "Крупный план"
Аудиокодек: AC3 5.1
Битрейт аудио: 448 kbps

Реценция с кинопоиска от Elena S:

Юг — край встреч и разлук
Есть в фильмах Аллы Суриковой свое особое, солнечно-непосредственное обаяние. Лирическая комедия «Будьте моим мужем» не исключение. Удивительно позитивный, добрый фильм.
Он — врач-педиатр, отдающий все свои силы любимой работе и своим маленьким пациентам. Она — мать-одиночка, которую муж бросил сразу после свадьбы, и с той поры с подозрением относящаяся ко всем мужчинам. Они встретились на юге, где самые-самые женатые все равно считаются холостыми — для того, чтобы предстать перед окружающими счастливой семейной парой. И фиктивный «брак» нужный лишь для того, чтобы Наташу пустили в съемную квартиру с ребенком, стал началом красивой истории любви.
В фильме, несмотря на уже довольно вольные восьмидесятые годы, чувства героев показаны очень осторожно, словно невзначай. Никаких поцелуев, обнимашек или постельных сцен, коих в современных фильмах немереное количество и которые уже перестали вызывать какие-либо эмоции. Нет, только прикосновение, взгляды, один танец — да и то в мечтах — и один поцелуй руки. Но эта невинность и трепетность почему-то цепляет куда больше самых жарких французских поцелуев и самых бурных любовных сцен.
Вторая составляющая фильма — это отличный, тонкий и порой язвительный юмор. Второстепенные персонажи — Личности с большой буквы. Альбина Петровна в исполнении Нины Руслановой — олицетворение «хозяйки» юга, царицы и богини, дающий приют всем отдыхающим дикарям и наваривающая на этом вполне приличные деньги. Одна незадача — ее хрустальная мечта машина уплывает перед носом Альбины по нелепой причине: бедная женщина страдает дальтонизмом. А сосед с брюками, которого говоря современным языком нахально «развели на брюки»? Сын умыкнул брюки, пообещав, что мама в долгу не останется, а мама не просто не приголубила, но еще и по физиономии надавала.
И третий кит успеха фильма — атмосфера свободы, тепла, отдыха, стремления к чему-то новому и желанному. Все персонажи фильма — оптимисты, с надеждой глядящие в будущее, у которых можно и даже нужно поучиться жизнелюбию. Жаркое солнце, бескрайное море и буйная зелень курортного уголка довешают картину уюта и покоя, в которую хочется погружаться снова и снова. Добрые и веселые песни в исполнении Андрей Миронова отлично подчеркивают атмосферу праздника.

9 из 10

MediaInfo:

Общее
Уникальный идентификатор : 225715608370545278067126710135365824418 (0xA9CF3EB24466F1A7AA656C5801D7EFA2)
Полное имя : D:\Downloads\Будьте моим мужем.mkv
Формат : Matroska
Версия формата : Version 2
Размер файла : 1,69 Гбайт
Продолжительность : 1 ч. 22 м.
Общий поток : 2948 Кбит/сек
Дата кодирования : UTC 2012-11-21 02:16:21
Программа кодирования : mkvmerge v5.7.0 ('The Whirlwind') built on Jul 29 2012 15:12:35
Библиотека кодирования : libebml v1.2.3 + libmatroska v1.3.0
Видео
Идентификатор : 1
Формат : AVC
Формат/Информация : Advanced Video Codec
Профиль формата : [url=mailto:[email protected]][email protected][/url]
Параметр CABAC формата : Да
Параметр ReFrames формата : 5 кадров
Режим смешивания : Header stripping
Идентификатор кодека : V_MPEG4/ISO/AVC
Продолжительность : 1 ч. 22 м.
Битрейт : 2499 Кбит/сек
Ширина : 720 пикселей
Высота : 512 пикселей
Соотношение сторон : 1,406
Режим частоты кадров : Постоянный
Частота кадров : 25,000 кадров/сек
Цветовое пространство : YUV
Субдискретизация насыщенности : 4:2:0
Битовая глубина : 8 бит
Тип развёртки : Прогрессивная
Бит/(Пиксели*Кадры) : 0.271
Размер потока : 1,40 Гбайт (83%)
Заголовок : Будьте моим мужем
Библиотека кодирования : x264 core 125 r2200 999b753
Настройки программы : cabac=1 / ref=5 / deblock=1:-1:-1 / analyse=0x3:0x113 / me=umh / subme=8 / psy=1 / psy_rd=1.00:0.15 / mixed_ref=1 / me_range=16 / chroma_me=1 / trellis=1 / 8x8dct=1 / cqm=0 / deadzone=21,11 / fast_pskip=1 / chroma_qp_offset=-3 / threads=3 / lookahead_threads=1 / sliced_threads=0 / nr=0 / decimate=1 / interlaced=0 / bluray_compat=0 / constrained_intra=0 / bframes=3 / b_pyramid=2 / b_adapt=2 / b_bias=0 / direct=3 / weightb=1 / open_gop=0 / weightp=2 / keyint=250 / keyint_min=25 / scenecut=40 / intra_refresh=0 / rc_lookahead=50 / rc=2pass / mbtree=1 / bitrate=2499 / ratetol=1.0 / qcomp=0.60 / qpmin=0 / qpmax=69 / qpstep=4 / cplxblur=20.0 / qblur=0.5 / ip_ratio=1.40 / aq=1:1.00
Язык : Russian
Default : Да
Forced : Нет
Аудио
Идентификатор : 2
Формат : AC-3
Формат/Информация : Audio Coding 3
Расширение режима : CM (complete main)
Параметр Endianness формата : Big
Режим смешивания : Header stripping
Идентификатор кодека : A_AC3
Продолжительность : 1 ч. 22 м.
Вид битрейта : Постоянный
Битрейт : 448 Кбит/сек
Каналы : 6 каналов
Расположение каналов : Front: L C R, Side: L R, LFE
Частота : 48,0 КГц
Битовая глубина : 16 бит
Метод сжатия : С потерями
Размер потока : 263 Мбайт (15%)
Заголовок : Русский
Язык : Russian
Default : Да
Forced : Нет
Скриншоты:                    
Вне форума [Профиль] [ЛС]
Показать сообщения:    
Ответить на тему

Текущее время: Сегодня 15:23

Часовой пояс: GMT + 3



Вы не можете начинать темы
Вы не можете отвечать на сообщения
Вы не можете редактировать свои сообщения
Вы не можете удалять свои сообщения
Вы не можете голосовать в опросах
Вы не можете прикреплять файлы к сообщениям
Вы не можете скачивать файлы