Сегодня идет свободное скачивание без начисления Download

Секретная миссия (1950) SATRip

Ответить на тему
 
Автор
Сообщение

Omen ®

Стаж: 6 лет 2 месяца

Сообщений: 184294

Торрент-статистика

Пост 09-Янв-2013 03:40

[Цитировать]

-Секретная миссия (1950) SATRip- Русское название: Секретная миссия
Год выпуска: 1950
Жанр: Военный, детектив
Описание фильма:
1945 год. Германия. Советские разведчики узнают о тайных переговорах немцев с англичанами и американцами и о готовящейся секретной капитуляции немецких войск на Западе. Советская разведчица Марта Ширке (она же - Маша Глухова) с честью выполняет задание командования.
Режиссер: Михаил Ромм
Актеры: Николай Комиссаров, Сергей Вечеслов, Елена Кузьмина, Алексей Грибов, Александр Чебан, Александр Антонов, Владимир Белокуров, Павел Березов, Павел Гайдебуров, Владимир Гардин, Александр Хохлов, Василий Макаров, Александр Пелевин, Марк Перцовский, Николай Рыбников старший, Владимир Савельев, Николай Тимофеев, Михаил Высоцкий, Лев Фенин, Борис Петкер, Михаил Яншин, Николай Трофимов, Георгий Георгиу
Продолжительность: 01:38:16

Видеокодек: MPEG-2
Битрейт видео: ~4500 Кбит/сек
Размер кадра: 720x576
Качество видео: SATRip
Аудиокодек: MP2. 2 ch
Битрейт аудио: 128 Кбит/сек

Дополнительные сведения:

Фильм оригинал без цензурного восстановления. Тут есть упоминания о Ранковиче (сподвижник Тито и руководитель МВД Югославии до 1966 года) и правителях Югославии как о шпионах гестапо, досье которых
передаётся американцам для продолжения их деятельности в интересах США. Кроме того, в конце фильма во время ликования народа по случаю Победы возгласы, восхваляющие Сталина. В процессе "восстановления" всё это было убрано.По этой причине хронометраж фильма больше чем у стандартной отредактированной версии фильма.

MediaInfo:

Общее
Полное имя : G:\new 092012\!DVD\Секретная миссия\Секретная миссия SatRip.mpg
Формат : MPEG-PS
Размер файла : 3,23 Гбайт
Продолжительность : 1 ч. 38 м.
Режим общего битрейта : Переменный
Общий поток : 4706 Кбит/сек
Библиотека кодирования : (c) 1998-2012 Womble Multimedia, Inc. / MPEG Video Wizard DVD 5.0.1.100 (03/2011) / Aug 9 2012
Видео
Идентификатор : 224 (0xE0)
Формат : MPEG Video
Версия формата : Version 2
Профиль формата : [email protected]
Параметр BVOP формата : Да
Параметр матрицы формата : Выборочная
Параметр GOP формата : Variable
Продолжительность : 1 ч. 38 м.
Вид битрейта : Переменный
Битрейт : 4500 Кбит/сек
Ширина : 720 пикселей
Высота : 576 пикселей
Соотношение сторон : 4:3
Частота кадров : 25,000 кадров/сек
Стандарт вещания : PAL
Цветовое пространство : YUV
Субдискретизация насыщенности : 4:2:0
Битовая глубина : 8 бит
Тип развёртки : Чересстрочная
Порядок развёртки : Верхнее поле первое
Метод сжатия : С потерями
Бит/(Пиксели*Кадры) : 0.434
Размер потока : 3,08 Гбайт (95%)
Выравнивание : (c) 1998-2012 Womble Multimedia, Inc. / MPEG Video Wizard DVD 5.0.1.100 (03/2011) / Aug 9 2012
Заголовок : (c) 1998-2012 Womble Multimedia, Inc. / MPEG Video Wizard DVD 5.0.1.100 (03/2011) / Aug 9 2012
Библиотека кодирования : (c) 1998-2012 Womble Multimedia, Inc. / MPEG Video Wizard DVD 5.0.1.100 (03/2011) / Aug 9 2012
Аудио
Идентификатор : 192 (0xC0)
Формат : MPEG Audio
Версия формата : Version 1
Профиль формата : Layer 2
Продолжительность : 1 ч. 38 м.
Вид битрейта : Постоянный
Битрейт : 128 Кбит/сек
Каналы : 2 канала
Частота : 48,0 КГц
Метод сжатия : С потерями
Размер потока : 90,0 Мбайт (3%)
Меню
Скриншоты:
         
         
Время раздачи: С 09:00 до 23:00
Вне форума [Профиль] [ЛС]
Похожие темы
Форум Тема Автор Торрент Отв. Посл. сообщение
./templates/default/images/folder_dl.gif Обучающее видео [Profileschool] Алексей Шадрин | Секреты современного искусства - Марк Шагал (2015) PCRec Omen
1 | 0

0 | 1442

34

2015-04-06 16:23
Omen Последнее
./templates/default/images/folder_dl.gif Обучающее видео [Profileschool] | Секреты цветокоррекции слайдов и негативов (2015) PCRec [H.264/1080p] Omen
1 | 0

0 | 1476

27

2015-08-19 13:10
Omen Последнее
Показать сообщения:    
Ответить на тему

Текущее время: Сегодня 07:21

Часовой пояс: GMT + 3



Вы не можете начинать темы
Вы не можете отвечать на сообщения
Вы не можете редактировать свои сообщения
Вы не можете удалять свои сообщения
Вы не можете голосовать в опросах
Вы не можете прикреплять файлы к сообщениям
Вы не можете скачивать файлы