Today is a free download without charge Download

Табор уходит в небо (1976) [H.264] DVDRip

Reply to topic
 
Author
Message

Omen ®

Longevity: 6 years 7 months

Posts: 181103

Торрент-статистика

Post 09-Jan-2013 03:24

[Quote]

-Табор уходит в небо (1976) [H.264] DVDRip-«А не те цыгане теперь пошли... Не те... Коня на золото меняют! И клинок. И душу.»- Русское название: Табор уходит в небо
Год выпуска: 1976
Жанр: Мьюзикл, Драма, Мелодрама
Страна: СССР
производство: Киностудия «Мосфильм»
Описание фильма:
Под цыганом Зобаром Лойко убили трех коней, многие его товарищи погибли, а он все крал и смерти не боялся, хоть один раз уже петлю ему на шею надели. Беда подстерегла его в виде красавицы Рады из другого табора. Нашла, как говорится, коса на камень - потребовала Рада, чтобы подчинился он ей, встал на колени и перед всеми правую руку поцеловал.
Режиссер: Эмиль Лотяну
Сценарий: Эмиль Лотяну, Максим Горький
Композитор: Евгений Дога
Актеры: Григоре Григориу, Светлана Тома, Барасби Мулаев, Ион Сандри Шкуря, Павел Андрейченко, Серджиу Финити, Борислав Брондуков, Ляля Черная, Нелли Волшанинова, Николай Волшанинов
Продолжительность: 01:35:33
Субтитры: Отсутствуют

Дата мировой премьеры: 5 апреля 1976
Видеокодек: MPEG-4 AVC/H.264
Битрейт видео: ~2500 Кбит/сек
Размер кадра: 720x 304
Качество видео: DVDRip Полная реставрация изображения и звука от "Крупный план"
Аудиокодек: AC3 5.1
Битрейт аудио: 448 kbps

Знаете ли вы, что...

Занимает по посещаемости 13-е место среди отечественных фильмов за всю историю советского кинопроката.
Лидер проката (1976, 1 место) - 64.9 млн. зрителей.
Светлана Тома была признана лучшей актрисой 1976 года по опросу журнала «Советский экран».

Реценция с кинопоиска от Анзу:

Цыгане шумною толпою по Бессарабии идут
Когда я зашла на Кинопоиск, чтобы поставить оценку этому фильму, то просто ахнула. Каких-то восемьсот с небольшим оценок и рейтинг даже не добирающий восьми баллов заставили меня очень удивиться. На мой взгляд, «Табор» заслуживает полноправного места в Топе-250 наряду с такими шедеврами как «Служебный роман», «Москва слезам не верит» и другой классикой советского кинематографа. Поэтому скромно надеюсь, что моя небольшая рецензия поможет кому-нибудь познакомиться с этим замечательным фильмом молдавского режиссера Эмиля Лотяну.
Фильм снят по повести Максима Горького «Макар Чудра» и, естественно, сначала я прочитала книгу. А когда посмотрела фильм, поняла, что именно такими представляла себе главных героев: вот она дерзкая, непокорная Рада, в исполнении Светланы Томы, вот удачливый вор Зобар, которого сыграл Григорий Григориу — от этих персонажей исходит жаркая страсть, кочевая дикость и лихая удаль, свойственная цыганскому народу. И, хотя, умом понимаешь, что настоящие цыгане — это отнюдь не романтичные бродяги, с «гитарой под полою», что Тома с ее европейскими чертами лица и роскошным париком похожа на цыганку также как я на профессора математики, но этот фильм с первых кадров завораживает своей атмосферой. Пестрые цыганские платки, кружащиеся в вихре танца и великолепно подобранные песни создают у зрителя некую причастность к их дикой культуре.
И, конечно, любовь. Она мгновенно вспыхивает между Радой и Зобаром и также мгновенно сгорает, ибо двое гордых людей никогда не смогут быть вместе, ведь их главная страсть — это воля.
В общем, фильм обязателен к просмотру. Я скажу даже больше: цыгане у Лотяну более интересные чем у главного на сегодняшний день «бытописателя» цыганской жизни — Эмира Кустурицы. Может потому, что «наши», а может потому, что такой красивой сказки о любви к свободе уже не снять, Бог его знает…

10 из 10

Награды:

Сан-Себастьян, 1976 год
Победитель (1):
Золотая раковина
Диплом за лучшую режиссуру международного кинофестиваля «Fest-77» в Белграде, 1977
Диплом за лучший фильм международного фестиваля в Праге, 1977
Почетный диплом технического конкурса фильмов в рамках конгресса УНИАТЕК в Париже, 1978

MediaInfo:

Общее
Уникальный идентификатор : 191397546960398904017965646399251728306 (0x8FFDD3A26FA9A543818D35D5BEACC7B2)
Полное имя : D:\Downloads\Табор уходит в небо.mkv
Формат : Matroska
Версия формата : Version 2
Размер файла : 1,97 Гбайт
Продолжительность : 1 ч. 35 м.
Общий поток : 2949 Кбит/сек
Дата кодирования : UTC 2012-11-24 11:48:49
Программа кодирования : mkvmerge v5.7.0 ('The Whirlwind') built on Jul 29 2012 15:12:35
Библиотека кодирования : libebml v1.2.3 + libmatroska v1.3.0
Видео
Идентификатор : 1
Формат : AVC
Формат/Информация : Advanced Video Codec
Профиль формата : [url=mailto:[email protected]][email protected][/url]
Параметр CABAC формата : Да
Параметр ReFrames формата : 5 кадров
Режим смешивания : Header stripping
Идентификатор кодека : V_MPEG4/ISO/AVC
Продолжительность : 1 ч. 35 м.
Битрейт : 2500 Кбит/сек
Ширина : 720 пикселей
Высота : 304 пикселя
Соотношение сторон : 2,35:1
Режим частоты кадров : Постоянный
Частота кадров : 25,000 кадров/сек
Цветовое пространство : YUV
Субдискретизация насыщенности : 4:2:0
Битовая глубина : 8 бит
Тип развёртки : Прогрессивная
Бит/(Пиксели*Кадры) : 0.457
Размер потока : 1,63 Гбайт (83%)
Заголовок : Табор уходит в небо
Библиотека кодирования : x264 core 125 r2200 999b753
Настройки программы : cabac=1 / ref=5 / deblock=1:-1:-1 / analyse=0x3:0x113 / me=umh / subme=8 / psy=1 / psy_rd=1.00:0.15 / mixed_ref=1 / me_range=16 / chroma_me=1 / trellis=1 / 8x8dct=1 / cqm=0 / deadzone=21,11 / fast_pskip=1 / chroma_qp_offset=-3 / threads=3 / lookahead_threads=1 / sliced_threads=0 / nr=0 / decimate=1 / interlaced=0 / bluray_compat=0 / constrained_intra=0 / bframes=3 / b_pyramid=2 / b_adapt=2 / b_bias=0 / direct=3 / weightb=1 / open_gop=0 / weightp=2 / keyint=250 / keyint_min=25 / scenecut=40 / intra_refresh=0 / rc_lookahead=50 / rc=2pass / mbtree=1 / bitrate=2500 / ratetol=1.0 / qcomp=0.60 / qpmin=0 / qpmax=69 / qpstep=4 / cplxblur=20.0 / qblur=0.5 / ip_ratio=1.40 / aq=1:1.00
Язык : Russian
Default : Да
Forced : Нет
Аудио
Идентификатор : 2
Формат : AC-3
Формат/Информация : Audio Coding 3
Расширение режима : CM (complete main)
Параметр Endianness формата : Big
Режим смешивания : Header stripping
Идентификатор кодека : A_AC3
Продолжительность : 1 ч. 35 м.
Вид битрейта : Постоянный
Битрейт : 448 Кбит/сек
Каналы : 6 каналов
Расположение каналов : Front: L C R, Side: L R, LFE
Частота : 48,0 КГц
Битовая глубина : 16 бит
Метод сжатия : С потерями
Задержка видео : 355 мс.
Размер потока : 306 Мбайт (15%)
Заголовок : Русский
Язык : Russian
Default : Да
Forced : Нет
Скриншоты:                    
Other forum [Profile] [PM]
Display posts from previous:    
Reply to topic

The time now is: Today 23:40

All times are GMT + 3 Hours



You cannot post new topics in this forum
You cannot reply to topics in this forum
You cannot edit your posts in this forum
You cannot delete your posts in this forum
You cannot vote in polls in this forum
You cannot attach files in this forum
You cannot download files in this forum