Сегодня идет свободное скачивание без начисления Download

Путь в «Сатурн» (1967)[H.264] DVDRip

Ответить на тему
 
Автор
Сообщение

Omen ®

Стаж: 6 лет

Сообщений: 184329

Торрент-статистика

Пост 09-Янв-2013 03:16

[Цитировать]

- Путь в «Сатурн» (1967)[H.264] DVDRip- Русское название: Путь в «Сатурн»
Год выпуска: 1967
Жанр: Военный, Драма, Приключения
Описание фильма:
Первый фильм кинотрилогии о советском разведчике Крылове, который по заданию командования внедрился в немецкий разведцентр «Сатурн». Продолжение в фильмах Конец «Сатурна» и Бой после победы.

Режиссер: Виллен Азаров
Актеры: Михаил Волков, Георгий Жженов, Евгений Кузнецов, Аркадий Толбузин, Владимир Кашпур, Владимир Муравьев, Николай Граббе, Бруно Фрейндлих, Владимир Покровский, Людмила Шапошникова, Григорий Гай, Николай Прокопович, Михаил Глузский, Людмила Максакова

Продолжительность: 01:18:19

Видеокодек: MPEG-4 AVC/H.264
Формат: mkv
Битрейт видео: ~2020 kbps
Размер кадра: [email protected]
Качество видео: DVDRip
Аудиокодек: AC3 2.0
Битрейт аудио: ~256.00 kbps

MI

Общее
Уникальный идентификатор : 173542901808666558335748741916393256709 (0x828F25A9D8F2BCF480246411F9ACB705)
Полное имя : C:\Users\1\Downloads\Путь в Сатурн.1967.mkv
Формат : Matroska
Версия формата : Version 2
Размер файла : 1,45 Гбайт
Продолжительность : 1 ч. 18 м.
Общий поток : 2652 Кбит/сек
Название фильма : Путь в «Сатурн»
Дата кодирования : UTC 2012-08-19 19:03:30
Программа кодирования : mkvmerge v5.7.0 ('The Whirlwind') built on Jul 8 2012 20:08:51
Библиотека кодирования : libebml v1.2.3 + libmatroska v1.3.0
Примечание : DVDRip-AVC
Date released : August 19th 2012
Encoded by : imgeorgest®
Видео
Идентификатор : 1
Формат : AVC
Формат/Информация : Advanced Video Codec
Профиль формата : [url=mailto:[email protected]][email protected][/url]
Параметр CABAC формата : Да
Параметр ReFrames формата : 16 кадров
Идентификатор кодека : V_MPEG4/ISO/AVC
Продолжительность : 1 ч. 18 м.
Битрейт : 2394 Кбит/сек
Ширина : 688 пикселей
Высота : 400 пикселей
Соотношение сторон : 16:9
Соотношение сторон в оригинале : 16:9
Частота кадров : 25,000 кадров/сек
Цветовое пространство : YUV
Субдискретизация насыщенности : 4:2:0
Битовая глубина : 8 бит
Тип развёртки : Прогрессивная
Бит/(Пиксели*Кадры) : 0.348
Размер потока : 1,28 Гбайт (88%)
Заголовок : Путь в «Сатурн» 1967
Библиотека кодирования : x264 core 125 r2200 999b753
Настройки программы : cabac=1 / ref=16 / deblock=1:0:-1 / analyse=0x3:0x133 / me=umh / subme=11 / psy=1 / psy_rd=1.00:0.15 / mixed_ref=1 / me_range=48 / chroma_me=1 / trellis=2 / 8x8dct=1 / cqm=0 / deadzone=21,11 / fast_pskip=0 / chroma_qp_offset=-3 / threads=12 / lookahead_threads=2 / sliced_threads=0 / nr=0 / decimate=0 / interlaced=0 / bluray_compat=0 / constrained_intra=0 / bframes=10 / b_pyramid=2 / b_adapt=2 / b_bias=0 / direct=3 / weightb=1 / open_gop=0 / weightp=2 / keyint=250 / keyint_min=25 / scenecut=40 / intra_refresh=0 / rc_lookahead=60 / rc=2pass / mbtree=1 / bitrate=2394 / ratetol=1.0 / qcomp=0.60 / qpmin=0 / qpmax=69 / qpstep=4 / cplxblur=20.0 / qblur=0.5 / vbv_maxrate=50000 / vbv_bufsize=62500 / nal_hrd=none / ip_ratio=1.40 / aq=1:1.00
Язык : Russian
Default : Да
Forced : Нет
Основные цвета : BT.470-6 System B, BT.470-6 System G, BT.601-6 625, BT.1358 625, BT.1700 625 PAL, BT.1700 625 SECAM
Характеристики трансфера : BT.470-6 System B, BT.470-6 System G
Коэффициенты матрицы : BT.470-6 System B, BT.470-6 System G, BT.601-6 625, BT.1358 625, BT.1700 625 PAL, BT.1700 625 SECAM, IEC 61966-2-4 601
Аудио
Идентификатор : 2
Формат : AC-3
Формат/Информация : Audio Coding 3
Расширение режима : CM (complete main)
Идентификатор кодека : A_AC3
Продолжительность : 1 ч. 18 м.
Вид битрейта : Постоянный
Битрейт : 256 Кбит/сек
Каналы : 2 канала
Расположение каналов : Front: L R
Частота : 48,0 КГц
Битовая глубина : 16 бит
Метод сжатия : С потерями
Размер потока : 143 Мбайт (10%)
Заголовок : Оригинал AC-3; 16 bit 48 Khz; 2ch 256 Kbps; CBR
Язык : Russian
Default : Да
Forced : Нет
[url=/forum/viewtopic.php?t=583169]Конец «Сатурна» (1967)[H.264] DVDRip[/url]
Скриншоты:
       
   
Вне форума [Профиль] [ЛС]
Показать сообщения:    
Ответить на тему

Текущее время: Сегодня 16:20

Часовой пояс: GMT + 3



Вы не можете начинать темы
Вы не можете отвечать на сообщения
Вы не можете редактировать свои сообщения
Вы не можете удалять свои сообщения
Вы не можете голосовать в опросах
Вы не можете прикреплять файлы к сообщениям
Вы не можете скачивать файлы