Сегодня идет свободное скачивание без начисления Download

Застава в горах (1954) DVDRip

Ответить на тему
 
Автор
Сообщение

Omen ®

Стаж: 5 лет 10 месяцев

Сообщений: 184329

Торрент-статистика

Пост 09-Янв-2013 02:56

[Цитировать]

-Застава в горах (1954) DVDRip- Русское название: Застава в горах
Год выпуска: 1954
Жанр: Приключения
Описание фильма:
Из Москвы на погранзаставу приезжает старший лейтенант Лунин и назначается заместителем начальника. Герой быстро включается в боевую жизнь, а тем временем банда Исмаил-бека, оплачиваемая иностранной разведкой, активизирует свои действия...
Режиссер: Константин Юдин
Актеры: Владлен Давыдов, Марина Кузнецова, Елена Шатрова, Сергей Гурзо, Станислав Чекан, Аркадий Щербаков, Александр Суснин, Михаил Майоров, Владимир А.Попов, Л.Лобов, Мухамеджан Касымов, Владимир Белокуров, Алексей Краснопольский, Георгий Черноволенко, Нина Агапова
Сценарий: Михаил Вольпин, Николай Эрдман
Продолжительность: 01:37:09

Дата мировой премьеры: 7 ноября 1953
Видеокодек: DivX 5
Битрейт видео: ~933 kbps avg, 0.122 bit/pixel
Размер кадра: 640x480 (1.33:1), 25 fps
Качество видео: DVDRip
Аудиокодек: MP3, 2 ch
Битрейт аудио: 128.00 kbps avg, 48,0 kHz

MediaInfo

Код:
Общее
Полное имя                               : Zastava_v_gorah_DVDRip_745mb.avi
Формат                                   : AVI
Формат/Информация                        : Audio Video Interleave
Размер файла                             : 744 Мбайт
Продолжительность                        : 1 ч. 37 м.
Общий поток                              : 1071 Кбит/сек
Программа кодирования                    : VirtualDubModRus 1.5.10.2 (build 2542/release)
Библиотека кодирования                   : VirtualDubMod build 2542/release
Видео
Идентификатор                            : 0
Формат                                   : MPEG-4 Visual
Параметр BVOP формата                    : 1
Параметр QPel формата                    : Нет
Параметр GMC формата                     : Без точки перехода
Параметр матрицы формата                 : Default (H.263)
Режим смешивания                         : Сжатый битовый поток
Идентификатор кодека                     : DX50
Идентификатор кодека/Подсказка           : DivX 5
Продолжительность                        : 1 ч. 37 м.
Битрейт                                  : 933 Кбит/сек
Ширина                                   : 640 пикселей
Высота                                   : 480 пикселей
Соотношение сторон                       : 4:3
Частота кадров                           : 25,000 кадров/сек
Цветовое пространство                    : YUV
Субдискретизация насыщенности            : 4:2:0
Битовая глубина                          : 8 бит
Тип развёртки                            : Прогрессивная
Метод сжатия                             : С потерями
Бит/(Пиксели*Кадры)                      : 0.122
Размер потока                            : 649 Мбайт (87%)
Библиотека кодирования                   : DivX 6.8.3-6.8.4 (UTC 2008-06-07)
Аудио
Идентификатор                            : 1
Формат                                   : MPEG Audio
Версия формата                           : Version 1
Профиль формата                          : Layer 3
Режим                                    : Joint stereo
Расширение режима                        : MS Stereo
Идентификатор кодека                     : 55
Идентификатор кодека/Подсказка           : MP3
Продолжительность                        : 1 ч. 37 м.
Вид битрейта                             : Постоянный
Битрейт                                  : 128 Кбит/сек
Каналы                                   : 2 канала
Частота                                  : 48,0 КГц
Метод сжатия                             : С потерями
Размер потока                            : 88,9 Мбайт (12%)
Выравнивание                             : Соединение по промежуткам
Продолжительность промежутка             : 40  мс. (1,00 видеокадр)
Время предзагрузки промежутка            : 504  мс.
Библиотека кодирования                   : LAME3.97
Настройки программы                      : -m j -V 4 -q 2 -b 128

Знаете ли вы, что...

Занимает по посещаемости 57-е место среди отечественных фильмов за всю историю советского кинопроката
Скриншоты:
                 
Вне форума [Профиль] [ЛС]
Показать сообщения:    
Ответить на тему

Текущее время: Сегодня 14:49

Часовой пояс: GMT + 3



Вы не можете начинать темы
Вы не можете отвечать на сообщения
Вы не можете редактировать свои сообщения
Вы не можете удалять свои сообщения
Вы не можете голосовать в опросах
Вы не можете прикреплять файлы к сообщениям
Вы не можете скачивать файлы