Сегодня идет свободное скачивание без начисления Download

Сын (1955) SATRip

Ответить на тему
 
Автор
Сообщение

Omen ®

Стаж: 6 лет

Сообщений: 184329

Торрент-статистика

Пост 09-Янв-2013 02:52

[Цитировать]

-Сын (1955) SATRip- Русское название: Сын
Год выпуска: 1955
Жанр: Драма
Описание фильма:
«Сын» — молодёжная социальная драма - Девятикласснику Андрею Горяеву, совершившему хулиганский поступок, грозит уголовная ответственность. Однако благодаря сердобольности свидетельницы, его отпускают. После ссоры с отцом герой уходит из дома и скитается по Москве до тех пор, пока случай не приводит его на стройку…
Режиссер: Юрий Озеров
Актеры: Леонид Харитонов, Петр Константинов, Валентина Каргашова, Виктор Гераскин, Надежда Румянцева, Константин Сорокин, Алексей Грибов, Владимир Белокуров, Роза Макагонова, Александр Михайлов, Вера Карпова, Сергей Калинин

Продолжительность: 01:26:10

Видеокодек: Xvid
Битрейт видео: ~2126 kbps
Размер кадра: 704x528 (4:3)
Качество видео: SATRip
Аудиокодек: AC3 2.0
Битрейт аудио: 128.00 kbps

MI

Общее
Полное имя : C:\Users\1\Downloads\Sin.avi
Формат : AVI
Формат/Информация : Audio Video Interleave
Размер файла : 1,36 Гбайт
Продолжительность : 1 ч. 26 м.
Общий поток : 2264 Кбит/сек
Программа кодирования : VirtualDubModRus 1.5.10.2 (build 2542/release)
Библиотека кодирования : VirtualDubMod build 2542/release
Видео
Идентификатор : 0
Формат : MPEG-4 Visual
Профиль формата : Advanced [email protected]
Параметр BVOP формата : 2
Параметр QPel формата : Нет
Параметр GMC формата : Без точки перехода
Параметр матрицы формата : Default (MPEG)
Режим смешивания : Сжатый битовый поток
Идентификатор кодека : XVID
Идентификатор кодека/Подсказка : XviD
Продолжительность : 1 ч. 26 м.
Битрейт : 2126 Кбит/сек
Ширина : 704 пикселя
Высота : 528 пикселей
Соотношение сторон : 4:3
Частота кадров : 25,000 кадров/сек
Цветовое пространство : YUV
Субдискретизация насыщенности : 4:2:0
Битовая глубина : 8 бит
Тип развёртки : Прогрессивная
Метод сжатия : С потерями
Бит/(Пиксели*Кадры) : 0.229
Размер потока : 1,28 Гбайт (94%)
Библиотека кодирования : XviD 1.2.1 (UTC 2008-12-04)
Аудио
Идентификатор : 1
Формат : AC-3
Формат/Информация : Audio Coding 3
Расширение режима : CM (complete main)
Идентификатор кодека : 2000
Продолжительность : 1 ч. 26 м.
Вид битрейта : Постоянный
Битрейт : 128 Кбит/сек
Каналы : 2 канала
Расположение каналов : Front: L R
Частота : 48,0 КГц
Битовая глубина : 16 бит
Метод сжатия : С потерями
Размер потока : 79,0 Мбайт (6%)
Выравнивание : Соединение по промежуткам
Продолжительность промежутка : 40 мс. (1,00 видеокадр)
Время предзагрузки промежутка : 512 мс.
Скриншоты:
         
   
Вне форума [Профиль] [ЛС]
Показать сообщения:    
Ответить на тему

Текущее время: Сегодня 19:55

Часовой пояс: GMT + 3



Вы не можете начинать темы
Вы не можете отвечать на сообщения
Вы не можете редактировать свои сообщения
Вы не можете удалять свои сообщения
Вы не можете голосовать в опросах
Вы не можете прикреплять файлы к сообщениям
Вы не можете скачивать файлы