Сегодня идет свободное скачивание без начисления Download

Александр Попов (1949) DVDRip

Ответить на тему
 
Автор
Сообщение

Omen ®

Стаж: 6 лет

Сообщений: 184329

Торрент-статистика

Пост 09-Янв-2013 02:44

[Цитировать]

-Александр Попов (1949) DVDRip- Русское название: Александр Попов
Год выпуска: 1949
Жанр: Драма
Описание фильма:
Биографический фильм о жизни и деятельности выдающегося физика-электротехника, изобретателя радиосвязи Александра Степановича Попова (1859-1905). В процессе научного поиска талант и наблюдательность Попова позволили ему совершить ряд уникальных открытий.
Изобретенный им беспроволочный телеграф впервые был применен в тяжелейших условиях полярного севера, спасении людей, оказавшихся на льдине в открытом океане

Режиссер: Герберт Раппапорт, Виктор Эйсымонт
Актеры: Николай Черкасов, Осип Абдулов, Бруно Фрейндлих, Павел Панков, Виталий Полицеймако, Александр Борисов, Ефим Копелян, Константин Скоробогатов, Илья Судаков, Вера Салимова, Юрий Толубеев, Владимир Честноков, Валентин Сац, Иван Капитонов, К. Благовещенская, Л. Вивен
Продолжительность: 01:26:59

Видеокодек: Xvid
Битрейт видео: ~ 2078 kbps
Размер кадра: 640x480
Качество видео: DVDRip
Аудиокодек: MP3, 2ch
Битрейт аудио: 192.00 kbps

MI

Общее
Полное имя : C:\Users\1\Downloads\A.Popov.1949.DVDRip.avi
Формат : AVI
Формат/Информация : Audio Video Interleave
Размер файла : 1,38 Гбайт
Продолжительность : 1 ч. 26 м.
Общий поток : 2280 Кбит/сек
Программа кодирования : Lavf51.12.1
Библиотека кодирования : VirtualDub-MPEG2 build 24600/release
Видео
Идентификатор : 0
Формат : MPEG-4 Visual
Профиль формата : Advanced [email protected]
Параметр BVOP формата : 2
Параметр QPel формата : Нет
Параметр GMC формата : Без точки перехода
Параметр матрицы формата : Default (H.263)
Режим смешивания : Сжатый битовый поток
Идентификатор кодека : XVID
Идентификатор кодека/Подсказка : XviD
Продолжительность : 1 ч. 26 м.
Битрейт : 2078 Кбит/сек
Ширина : 640 пикселей
Высота : 480 пикселей
Соотношение сторон : 4:3
Частота кадров : 25,000 кадров/сек
Цветовое пространство : YUV
Субдискретизация насыщенности : 4:2:0
Битовая глубина : 8 бит
Тип развёртки : Прогрессивная
Метод сжатия : С потерями
Бит/(Пиксели*Кадры) : 0.271
Размер потока : 1,26 Гбайт (91%)
Библиотека кодирования : XviD 1.2.1 (UTC 2008-12-04)
Аудио
Идентификатор : 1
Формат : MPEG Audio
Версия формата : Version 1
Профиль формата : Layer 3
Режим : Joint stereo
Идентификатор кодека : 55
Идентификатор кодека/Подсказка : MP3
Продолжительность : 1 ч. 26 м.
Вид битрейта : Постоянный
Битрейт : 192 Кбит/сек
Каналы : 2 канала
Частота : 48,0 КГц
Метод сжатия : С потерями
Размер потока : 119 Мбайт (8%)
Выравнивание : Разделение по промежуткам
Продолжительность промежутка : 40 мс. (1,00 видеокадр)
Время предзагрузки промежутка : 500 мс.
Скриншоты:
       
Вне форума [Профиль] [ЛС]
Похожие темы
Форум Тема Автор Торрент Отв. Посл. сообщение
./templates/default/images/folder_dl.gif Фантастика, фэнтези, ужасы, мистика Алекс Орлов - Серия "Тени войны" |20 томов|1998-2003|[FB2] Omen
1 | 0

0 | 4411

33

2012-05-12 18:24
Omen Последнее
./templates/default/images/folder_dl.gif Приключения, детектив, боевик, триллер Алексеев Сергей - Удар "Молнии" [Литвинова Наталия, 2012, 96 kbps, MP3] Omen
1 | 0

0 | 1115

8

2012-12-11 05:28
Omen Последнее
./templates/default/images/folder_dl.gif Приключения, детектив, боевик, триллер Бушков Александр - Цикл "Пиранья" (16 книг) [Заборовский Ю., Кирсанов С., Герасимов В., Шевяков В., Сушков В., Савицкий Н., 2012 г., 128 kbps, MP3] Omen
1 | 0

0 | 741

17

2012-12-11 05:29
Omen Последнее
./templates/default/images/folder_dl.gif Фильмы 2001-2010 Новая земля (Александр Мельник) (2008, Фантастика, боевик, драма) [H.264] BDRip Omen
1 | 0

0 | 2610

23

2013-02-20 16:44
Omen Последнее
./templates/default/images/folder_dl.gif Обучающее видео Алекс Мэй | Академия секса (2012) [SATRip] UndegraundMen
1 | 0

0 | 11272

698

2013-09-30 23:05
UndegraundMen Последнее
./templates/default/images/folder_dl.gif Обучающее видео Алексей Кулик | Видеокурс по Ремонту обуви, изготовлению ключей, установки кнопок (2013) [DVDRip] Omen
1 | 0

3 | 1785

27

2018-08-08 08:23
zvladss Последнее
./templates/default/images/folder_dl.gif Компьютерная литература Виктор Долженков, Александр Стученков | Самоучитель Excel 2010 (2011) [PDF] Omen
1 | 0

0 | 1322

7

2014-08-09 21:50
Omen Последнее
./templates/default/images/folder_dl.gif Фильмы 2011-2016 Французский шпион (Алексей Феоктистов) [2014 г., боевик, детектив, DVDRip-AVC] [Лицензия] Omen
1 | 0

0 | 2143

48

2014-09-26 11:28
Omen Последнее
./templates/default/images/folder_dl.gif Обучающее видео [profileschool] Алексей Довгуля | Студийная съемка (2014) PCRec Omen
1 | 0

0 | 3341

109

2014-09-28 20:05
Omen Последнее
./templates/default/images/folder_dl.gif Обучающее видео [Profileschool] Александр Чалдрян | 3D LUT Creator. Следуй за белым кроликом (2014) PCRec Omen
1 | 0

0 | 3335

78

2014-10-29 13:07
Omen Последнее
Показать сообщения:    
Ответить на тему

Текущее время: Сегодня 15:56

Часовой пояс: GMT + 3



Вы не можете начинать темы
Вы не можете отвечать на сообщения
Вы не можете редактировать свои сообщения
Вы не можете удалять свои сообщения
Вы не можете голосовать в опросах
Вы не можете прикреплять файлы к сообщениям
Вы не можете скачивать файлы