Сегодня идет свободное скачивание без начисления Download

Александр Попов (1949) DVDRip

Ответить на тему
 
Автор
Сообщение

Omen ®

Стаж: 6 лет 2 месяца

Сообщений: 184294

Торрент-статистика

Пост 09-Янв-2013 02:44

[Цитировать]

-Александр Попов (1949) DVDRip- Русское название: Александр Попов
Год выпуска: 1949
Жанр: Драма
Описание фильма:
Биографический фильм о жизни и деятельности выдающегося физика-электротехника, изобретателя радиосвязи Александра Степановича Попова (1859-1905). В процессе научного поиска талант и наблюдательность Попова позволили ему совершить ряд уникальных открытий.
Изобретенный им беспроволочный телеграф впервые был применен в тяжелейших условиях полярного севера, спасении людей, оказавшихся на льдине в открытом океане

Режиссер: Герберт Раппапорт, Виктор Эйсымонт
Актеры: Николай Черкасов, Осип Абдулов, Бруно Фрейндлих, Павел Панков, Виталий Полицеймако, Александр Борисов, Ефим Копелян, Константин Скоробогатов, Илья Судаков, Вера Салимова, Юрий Толубеев, Владимир Честноков, Валентин Сац, Иван Капитонов, К. Благовещенская, Л. Вивен
Продолжительность: 01:26:59

Видеокодек: Xvid
Битрейт видео: ~ 2078 kbps
Размер кадра: 640x480
Качество видео: DVDRip
Аудиокодек: MP3, 2ch
Битрейт аудио: 192.00 kbps

MI

Общее
Полное имя : C:\Users\1\Downloads\A.Popov.1949.DVDRip.avi
Формат : AVI
Формат/Информация : Audio Video Interleave
Размер файла : 1,38 Гбайт
Продолжительность : 1 ч. 26 м.
Общий поток : 2280 Кбит/сек
Программа кодирования : Lavf51.12.1
Библиотека кодирования : VirtualDub-MPEG2 build 24600/release
Видео
Идентификатор : 0
Формат : MPEG-4 Visual
Профиль формата : Advanced [email protected]
Параметр BVOP формата : 2
Параметр QPel формата : Нет
Параметр GMC формата : Без точки перехода
Параметр матрицы формата : Default (H.263)
Режим смешивания : Сжатый битовый поток
Идентификатор кодека : XVID
Идентификатор кодека/Подсказка : XviD
Продолжительность : 1 ч. 26 м.
Битрейт : 2078 Кбит/сек
Ширина : 640 пикселей
Высота : 480 пикселей
Соотношение сторон : 4:3
Частота кадров : 25,000 кадров/сек
Цветовое пространство : YUV
Субдискретизация насыщенности : 4:2:0
Битовая глубина : 8 бит
Тип развёртки : Прогрессивная
Метод сжатия : С потерями
Бит/(Пиксели*Кадры) : 0.271
Размер потока : 1,26 Гбайт (91%)
Библиотека кодирования : XviD 1.2.1 (UTC 2008-12-04)
Аудио
Идентификатор : 1
Формат : MPEG Audio
Версия формата : Version 1
Профиль формата : Layer 3
Режим : Joint stereo
Идентификатор кодека : 55
Идентификатор кодека/Подсказка : MP3
Продолжительность : 1 ч. 26 м.
Вид битрейта : Постоянный
Битрейт : 192 Кбит/сек
Каналы : 2 канала
Частота : 48,0 КГц
Метод сжатия : С потерями
Размер потока : 119 Мбайт (8%)
Выравнивание : Разделение по промежуткам
Продолжительность промежутка : 40 мс. (1,00 видеокадр)
Время предзагрузки промежутка : 500 мс.
Скриншоты:
       
Вне форума [Профиль] [ЛС]
Похожие темы
Форум Тема Автор Торрент Отв. Посл. сообщение
./templates/default/images/folder_dl.gif Обучающее видео Александр Свет | Профессиональная обработка RAW в Capture One Pro 7 (2013) [PCRec] UndegraundMen
1 | 0

0 | 3402

49

2013-11-28 23:01
UndegraundMen Последнее
./templates/default/images/folder_dl.gif Обучающая и научно-популярная литература Александр Свияш | Реальный лидер. Настрой для усиления мужской харизмы. (2010) [FLAC] Omen
1 | 0

0 | 1495

21

2014-08-01 19:36
Omen Последнее
./templates/default/images/folder_dl.gif Обучающее видео [Profileschool] Алексей Шадрин | Фундаментальная цветокоррекция фотографических изображений (2014) PCRec Omen
1 | 0

0 | 3012

97

2015-01-07 14:53
Omen Последнее
./templates/default/images/folder_dl.gif Обучающее видео Александр Киселев и Галина Исаева | Обучающий курс по съемке Love Story (2014) WEBRip [H.264/1080p] Omen
1 | 0

0 | 1291

36

2015-02-01 23:57
Omen Последнее
./templates/default/images/folder_dl.gif Обучающее видео Александр Медведев | 10 ноу-хау на съёмке, до которых вы не додумались (2013) PCRec Omen
1 | 0

0 | 1179

36

2015-04-03 20:51
Omen Последнее
./templates/default/images/folder_dl.gif Обучающее видео [Profileschool] Алексей Шадрин | Секреты современного искусства - Марк Шагал (2015) PCRec Omen
1 | 0

0 | 1442

34

2015-04-06 16:23
Omen Последнее
./templates/default/images/folder_dl.gif Обучающее видео [Profileschool] Алексей Шадрин | Пленочная фотография: за и против (Алексей Шадрин)[ 2015.,Обучающее видео]PCRec sashau
1 | 0

0 | 2293

28

2015-04-13 04:16
sashau Последнее
./templates/default/images/folder_dl.gif Обучающее видео Алекс Мэй | Сексуальные позиции. Для максимального наслаждения (2013) [CamRip] Omen
2 | 0

0 | 2072

205

2015-05-07 00:08
Omen Последнее
./templates/default/images/folder_dl.gif Обучающее видео Меркулов Алексей | Использование AutoCAD на 100% 2.0 (2015) PCRec [H.264/720p] Omen
1 | 0

1 | 2304

101

2017-11-25 21:03
aybulat Последнее
./templates/default/images/folder_dl.gif Обучающее видео Александр Медведев | Фотография по полкам. Свет. Часть 2 (2016) PCRec [H.264/1080p] Omen
1 | 0

0 | 585

9

2016-03-09 15:01
Omen Последнее
Показать сообщения:    
Ответить на тему

Текущее время: Сегодня 06:41

Часовой пояс: GMT + 3



Вы не можете начинать темы
Вы не можете отвечать на сообщения
Вы не можете редактировать свои сообщения
Вы не можете удалять свои сообщения
Вы не можете голосовать в опросах
Вы не можете прикреплять файлы к сообщениям
Вы не можете скачивать файлы