Сегодня идет свободное скачивание без начисления Download

Молодая жена (1978) DVDRip

Ответить на тему
 
Автор
Сообщение

Omen ®

Стаж: 6 лет 1 месяц

Сообщений: 184308

Торрент-статистика

Пост 09-Янв-2013 02:04

[Цитировать]

-Молодая жена (1978) DVDRip- Русское название: Молодая жена
Год выпуска: 1978
Страна: СССР
Жанр: Драма, Мелодрама
Описание фильма:
Маня и Володя полюбили друг друга еще в седьмом классе сельской школы, а когда парень ушел в армию, девушка ждала его. А Володя вернулся и… привез на свадьбу сестры новую подружку. От нанесенной обиды Маня назло всему свету и самой себе согласилась выйти замуж за Алексея, вдовца средних лет, имеющего маленькую дочь.
Работящий и хозяйственный мужчина, казалось, мог бы стать для своей жены «каменной стеной», но трудно оказалось Мане в доме мужа, который пытался отгородить ее от жизни, от людей. И Маня наперекор его воле уехала в город сдавать вступительные экзамены в заочный техникум…

Режиссер: Леонид Менакер
Актеры: Анна Каменкова, Владлен Бирюков, Галина Макарова, Сергей Проханов, Елена Мельникова, Олег Ефремов, Наталья Назарова, Соня Джишкариани, Валентина Владимирова, Т. Горлова-Аляева, Анатолий Рудаков, Игорь Озеров, Любовь Соколова, Игорь Эрельт
Сценарий: Ирина Велембовская
Оператор: Владимир Ковзель
Композитор: Яков Вайсбурд
Продолжительность: 01:33:00

Премьера фильма: 3 марта 1979 г.
9 место в советском прокате - 35.4 млн. зрителей.
Лучший фильм по опросу журнала «Советский экран» в 1980 году.
Приз за лучшую женскую роль (Анна Каменкова) ВКФ в Ашхабаде-79

Видеокодек: Xvid
Битрейт видео: ~926 kbps avg, 0.164 bit/pixel
Размер кадра: 768x320 (2.4:1), 25,000 fps
Качество видео: DVDRip
Аудиокодек: MP3, 2 ch
Битрейт аудио: 112.00 kbps avg, 44,1 kHz

MediaInfo

Код:
Общее
Полное имя                               : Молодая жена.avi
Формат                                   : AVI
Формат/Информация                        : Audio Video Interleave
Размер файла                             : 697 Мбайт
Продолжительность                        : 1 ч. 33 м.
Общий поток                              : 1047 Кбит/сек
Программа кодирования                    : VirtualDubMod 1.5.10.2 (build 2540/release)
Библиотека кодирования                   : VirtualDubMod build 2540/release
Видео
Идентификатор                            : 0
Формат                                   : MPEG-4 Visual
Профиль формата                          : Advanced [email protected]
Параметр BVOP формата                    : 1
Параметр QPel формата                    : Нет
Параметр GMC формата                     : Без точки перехода
Параметр матрицы формата                 : Default (MPEG)
Идентификатор кодека                     : XVID
Идентификатор кодека/Подсказка           : XviD
Продолжительность                        : 1 ч. 33 м.
Битрейт                                  : 926 Кбит/сек
Ширина                                   : 768 пикселя
Высота                                   : 320 пикселей
Соотношение сторон                       : 2,40:1
Частота кадров                           : 25,000 кадров/сек
Цветовое пространство                    : YUV
Субдискретизация насыщенности            : 4:2:0
Битовая глубина                          : 8 бит
Тип развёртки                            : Прогрессивная
Метод сжатия                             : С потерями
Бит/(Пиксели*Кадры)                      : 0.164
Размер потока                            : 616 Мбайт (88%)
Библиотека кодирования                   : XviD 1.2.1 (UTC 2008-12-04)
Аудио
Идентификатор                            : 1
Формат                                   : MPEG Audio
Версия формата                           : Version 1
Профиль формата                          : Layer 3
Режим                                    : Joint stereo
Расширение режима                        : MS Stereo
Идентификатор кодека                     : 55
Идентификатор кодека/Подсказка           : MP3
Продолжительность                        : 1 ч. 33 м.
Вид битрейта                             : Постоянный
Битрейт                                  : 112 Кбит/сек
Каналы                                   : 2 канала
Частота                                  : 44,1 КГц
Метод сжатия                             : С потерями
Размер потока                            : 74,5 Мбайт (11%)
Выравнивание                             : Разделение по промежуткам
Продолжительность промежутка             : 40  мс. (1,00 видеокадр)
Время предзагрузки промежутка            : 500  мс.
Библиотека кодирования                   : LAME3.98
Настройки программы                      : -m j -V 4 -q 3 -lowpass 15.6 -b 112
Скриншоты:
                   

Рецензия, отзыв о фильме

Если любишь человека, то отпусти…
«Если любишь, то отпусти. Если это твое, то обязательно к тебе вернется…»
Главная героиня совсем еще молодая девушка из сельской местности Маня. Очень робкая, нежная, ранимая и чувствительная. С седьмого класса она любила Володю всей силой первой юношеской любви, но молодой человек не оправдал ее надежд. Как же маня глубоко переживала нанесенную ей обиду: «Бабушка, я жить не хочу! не хочу…» Самые тяжелые раны нам порой наносят те кого мы любим больше всего на свете.
Вышла Маня замуж за не любимого и почти незнакомого ей человека- вдовца Алексея из соседней деревни назло себе и окружающим. Бабушка Агафья ее предупреждала, что «и с любовью с мужиком тяжело, а уж без любви..», но Маня заупрямилась и поступила по- своему. Семейная жизнь у них с мужем не складывалась. Манечка витала в облаках, грустила и плакала. Сама не понимала чего она хочет от жизни. Любит ли она его или нет. Чувство неопределенности тяготило ее. Алексей же так сильно любил ее, что буквально душил своей любовью, которую проявлял по своему. («Ох и скрутило меня, Томка! Никто мне кроме нее не нужен… Я ведь и не знал что такое быть может…») Девушку же, непонимающую поначалу все глубину его чувств пугало такое проявление любви в ограничении свободы и может быть поэтому она его боялась.
Такой тонкий, душевный, психологический фильм! Искренне сопереживаешь страданиям героев. Особую симпатию вызвала бабушка Агафья. Настоящая русская женщина! Такая и «коня на скаку остановит….», а уж за внучку свою горой стоит. ("Я ведь ей и мать, и отец!») В ней есть то, чего нет во многим людях, есть житейская, простая как вода, мудрость и взгляды на жизнь.
10 из 10
Вне форума [Профиль] [ЛС]
Похожие темы
Форум Тема Автор Торрент Отв. Посл. сообщение
./templates/default/images/folder_dl.gif Мультимедийные приложения Владимир Молодов | Базовый тренинг на массу (2013) [unpacked] Omen
1 | 0

0 | 14

0

2015-02-28 20:42
Omen Последнее
./templates/default/images/folder_dl.gif Медицина и Здоровье Сергей Бубновский | Активное долголетие, или как вернуть молодость вашему телу (2015) [RTF, FB2] Omen
2 | 0

0 | 1142

12

2015-04-27 22:12
Omen Последнее
./templates/default/images/folder_dl.gif Обучающее видео Бизнес Молодость | Миллион за сто [2015, Бизнес, RUS] (Видеоурок) Omen
0 | 1

0 | 924

4

2016-08-14 01:01
Omen Последнее
Показать сообщения:    
Ответить на тему

Текущее время: Сегодня 16:39

Часовой пояс: GMT + 3



Вы не можете начинать темы
Вы не можете отвечать на сообщения
Вы не можете редактировать свои сообщения
Вы не можете удалять свои сообщения
Вы не можете голосовать в опросах
Вы не можете прикреплять файлы к сообщениям
Вы не можете скачивать файлы