Сегодня идет свободное скачивание без начисления Download

Жестокий романс (1984) [H.264] DVDRip

Ответить на тему
 
Автор
Сообщение

Omen ®

Стаж: 5 лет 10 месяцев

Сообщений: 184329

Торрент-статистика

Пост 09-Янв-2013 01:12

[Цитировать]

-Жестокий романс (1984) DVDRip- Русское название: Жестокий романс
Год выпуска: 1984
Жанр: Драма
Описание фильма:
По мотивам пьесы А.Н. Островского «Бесприданница».
В провинциальном городе Бряхимове, стоящем на берегу Волги, живет Харита Игнатьевна Огудалова - обедневшая дворянка, вдова с тремя дочерьми. Несмотря на отсутствие средств, она всё-таки держит открытый дом, не без оснований рассчитывая, что общество красивых и музыкальных барышень привлечет холостых мужчин, которые женятся по любви на бесприданницах. Двух старших дочерей ей удаётся выдать замуж, осталась младшая, красавица Лариса. За ней ухаживает богатый барин Сергей Сергеевич Паратов, который, очевидно, весьма неравнодушен к девушке. Лариса также безумно влюбляется в красавца Паратова, но именно тогда, когда, по мнению Огудаловых и всех их знакомых, Паратов должен сделать предложение, Сергей Сергеевич спешно уезжает из города...
Режиссер: Эльдар Рязанов
Актеры: Лариса Гузеева /Лариса Огудалова (озвучивала Анна Каменкова, пела Валентина Пономарёва), Алиса Фрейндлих, Никита Михалков, Андрей Мягков, Алексей Петренко, Виктор Проскурин, Георгий Бурков, Татьяна Панкова, Борислав Брондуков, Александр Пятков, Юрий Саранцев, Ольга Волкова
Продолжительность: 02:16:54

Видеокодек: MPEG-4 AVC/H.264
Видео: Анаморф [email protected] (1.336), 25.000 fps, 2498 Kbps, 0.244 bit/pixel
Качество видео: DVDRip
Аудио: AC-3, 16 bit, 48 Khz, 6 ch., 448 Kbps, CBR

Знаете ли вы, что...

☀ Фильм демонстрировался в прокате в виде двух серий.
☀ Андрей Мягков едва не погиб на съемках. В одном из эпизодов ему пришлось подплыть на лодке слишком близко к старинному пароходу. Лопасти судна образовали на воде воронку. На глазах съемочной группы лодка с актером сгинула в пучине реки. К счастью через несколько минут над водой появилась голова Андрея Мягкова. Каким-то чудом он уцелел и выбрался на берег без единой царапины.
☀ В фильме снимались пароходы «Спартак» и «Володарский».
☀ Лучший фильм по опросу журнала «Советский экран» в 1985 году.
☀ «В роли» железнодорожного вокзала выступило здание Костромского театра кукол.

MediaInfo

Общее
Уникальный идентификатор : 184264322748914680563606638266144389785 (0x8AA00487192C09ABAFB469CDA49DFA99)
Полное имя : Zhestokiy.romans.(1984.dvdrip-avc).mkv
Формат : Matroska
Версия формата : Version 2
Размер файла : 2,82 Гбайт
Продолжительность : 2 ч. 16 м.
Общий поток : 2948 Кбит/сек
Дата кодирования : UTC 2012-06-30 15:45:53
Программа кодирования : mkvmerge v5.6.0 ('Kenya Kane') built on May 27 2012 16:44:04
Библиотека кодирования : libebml v1.2.3 + libmatroska v1.3.0
Видео
Идентификатор : 1
Формат : AVC
Формат/Информация : Advanced Video Codec
Профиль формата : [url=mailto:[email protected]][email protected][/url]
Параметр CABAC формата : Да
Параметр ReFrames формата : 16 кадров
Идентификатор кодека : V_MPEG4/ISO/AVC
Продолжительность : 2 ч. 16 м.
Битрейт : 2498 Кбит/сек
Ширина : 716 пикселей
Высота : 572 пикселя
Соотношение сторон : 4:3
Соотношение сторон в оригинале : 4:3
Режим частоты кадров : Постоянный
Частота кадров : 25,000 кадров/сек
Цветовое пространство : YUV
Субдискретизация насыщенности : 4:2:0
Битовая глубина : 8 бит
Тип развёртки : Прогрессивная
Бит/(Пиксели*Кадры) : 0.244
Размер потока : 2,33 Гбайт (83%)
Заголовок : Жестокий романс.1984
Библиотека кодирования : x264 core 124 r2197 69a0443
Настройки программы : cabac=1 / ref=16 / deblock=1:-2:-2 / analyse=0x3:0x133 / me=umh / subme=11 / psy=1 / psy_rd=1.05:0.15 / mixed_ref=1 / me_range=48 / chroma_me=1 / trellis=2 / 8x8dct=1 / cqm=0 / deadzone=21,11 / fast_pskip=0 / chroma_qp_offset=-3 / threads=12 / sliced_threads=0 / nr=0 / decimate=0 / interlaced=0 / bluray_compat=0 / constrained_intra=0 / bframes=10 / b_pyramid=2 / b_adapt=2 / b_bias=0 / direct=3 / weightb=1 / open_gop=0 / weightp=2 / keyint=250 / keyint_min=25 / scenecut=40 / intra_refresh=0 / rc_lookahead=40 / rc=2pass / mbtree=0 / bitrate=2498 / ratetol=1.0 / qcomp=0.70 / qpmin=0 / qpmax=69 / qpstep=4 / cplxblur=20.0 / qblur=0.5 / vbv_maxrate=50000 / vbv_bufsize=62500 / nal_hrd=none / ip_ratio=1.40 / pb_ratio=1.30 / aq=1:1.00
Язык : Russian
Default : Да
Forced : Нет
Основные цвета : BT.601 PAL
Характеристики трансфера : BT.470 System B, BT.470 System G
Коэффициенты матрицы : BT.601
Аудио
Идентификатор : 2
Формат : AC-3
Формат/Информация : Audio Coding 3
Расширение режима : CM (complete main)
Параметр Endianness формата : Big
Идентификатор кодека : A_AC3
Продолжительность : 2 ч. 16 м.
Вид битрейта : Постоянный
Битрейт : 448 Кбит/сек
Каналы : 6 каналов
Расположение каналов : Front: L C R, Side: L R, LFE
Частота : 48,0 КГц
Битовая глубина : 16 бит
Метод сжатия : С потерями
Размер потока : 439 Мбайт (15%)
Заголовок : Оригинал AC-3; 16 bit 48 Khz; 6ch 448 Kbps; CBR
Язык : Russian
Default : Да
Forced : Нет
Скриншоты:                    Время раздачи: С 13:00 до 21:00 (до 5 скачавших)Приятного просмотра!
Вне форума [Профиль] [ЛС]
Похожие темы
Форум Тема Автор Торрент Отв. Посл. сообщение
./templates/default/images/folder_dl.gif Обучающее видео Ангелина Шам | Язык жестов или как научиться читать чужие мысли [2010] DVDRip Omen
0 | 1

0 | 1358

1

2013-01-14 21:03
Omen Последнее
./templates/default/images/folder_dl.gif Приключения и квесты Grim Facade 10: The Message / За гранью жестокости 10: Письмо ниоткуда (2017) [Ru] (1.0) Unofficial [Collector's Edition / Коллекционное издание] XP1971
1 | 0

0 | 526

5

2017-12-28 12:43
XP1971 Последнее
Показать сообщения:    
Ответить на тему

Текущее время: Сегодня 20:41

Часовой пояс: GMT + 3



Вы не можете начинать темы
Вы не можете отвечать на сообщения
Вы не можете редактировать свои сообщения
Вы не можете удалять свои сообщения
Вы не можете голосовать в опросах
Вы не можете прикреплять файлы к сообщениям
Вы не можете скачивать файлы