Сегодня идет свободное скачивание без начисления Download

Хмурое утро (1959) [H.264] DVDRip

Ответить на тему
 
Автор
Сообщение

Omen ®

Стаж: 5 лет 10 месяцев

Сообщений: 184329

Торрент-статистика

Пост 09-Янв-2013 00:44

[Цитировать]

-Хмурое утро (1959) [H.264] DVDRip- Русское название: Хмурое утро
Год выпуска: 1959
Жанр: Драма, История
Страна: СССР
Производство: Киностудия «Мосфильм»
Описание фильма:
Третий фильм кинотрилогии «Хождение по мукам» заканчивает повествование о Гражданской войне в России в 1918-1920 годах. Взаимоотношения двух любящих пар, разворачивающиеся на фоне исторических событий, приходят к логической развязке.
Первая часть кинотрилогии Сёстры
Вторая часть кинотрилогии Восемнадцатый год
Режиссер: Григорий Рошаль
Сценарий: Борис Чирсков, Алексей Толстой
Композитор: Дмитрий Кабалевский
Актеры: Руфина Нифонтова, Нина Веселовская, Вадим Медведев, Николай Гриценко, Майя Булгакова, Борис Андреев, Виктор Авдюшко, Наталья Кустинская, Нонна Мордюкова, Любовь Соколова, Семен Свашенко, Павел Винников, Виталий Матвеев
Продолжительность: 01:39:03
Cубтитры: Отсутствуют

Дата мировой премьеры: 26 апреля 1959
Релиз на DVD: 11 декабря 2008, «Мастер Тэйп»
Видеокодек: MPEG-4 AVC/H.264
Битрейт видео: ~2100 Кбит/сек
Размер кадра: 720x512
Качество видео: DVDRip
Аудиокодек: AC3 2.0
Битрейт аудио: 384 kbps

MediaInfo:

Общее
Уникальный идентификатор : 198999062753186718022040227723579911027 (0x95B5D34C817B62228D67003C6F726B73)
Полное имя : D:\Downloads\Хмурое утро.mkv
Формат : Matroska
Версия формата : Version 2
Размер файла : 1,72 Гбайт
Продолжительность : 1 ч. 39 м.
Общий поток : 2485 Кбит/сек
Дата кодирования : UTC 2012-12-19 02:36:28
Программа кодирования : mkvmerge v5.7.0 ('The Whirlwind') built on Jul 29 2012 15:12:35
Библиотека кодирования : libebml v1.2.3 + libmatroska v1.3.0
Видео
Идентификатор : 1
Формат : AVC
Формат/Информация : Advanced Video Codec
Профиль формата : [url=mailto:[email protected]][email protected][/url]
Параметр CABAC формата : Да
Параметр ReFrames формата : 8 кадров
Режим смешивания : Header stripping
Идентификатор кодека : V_MPEG4/ISO/AVC
Продолжительность : 1 ч. 39 м.
Битрейт : 2100 Кбит/сек
Ширина : 720 пикселей
Высота : 512 пикселей
Соотношение сторон : 1,406
Режим частоты кадров : Постоянный
Частота кадров : 25,000 кадров/сек
Цветовое пространство : YUV
Субдискретизация насыщенности : 4:2:0
Битовая глубина : 8 бит
Тип развёртки : Прогрессивная
Бит/(Пиксели*Кадры) : 0.228
Размер потока : 1,42 Гбайт (83%)
Заголовок : Хмурое утро
Библиотека кодирования : x264 core 125 r2200 999b753
Настройки программы : cabac=1 / ref=8 / deblock=1:-1:-1 / analyse=0x3:0x133 / me=umh / subme=9 / psy=1 / psy_rd=1.00:0.15 / mixed_ref=1 / me_range=16 / chroma_me=1 / trellis=2 / 8x8dct=1 / cqm=0 / deadzone=21,11 / fast_pskip=1 / chroma_qp_offset=-3 / threads=3 / lookahead_threads=1 / sliced_threads=0 / nr=0 / decimate=1 / interlaced=0 / bluray_compat=0 / constrained_intra=0 / bframes=3 / b_pyramid=2 / b_adapt=2 / b_bias=0 / direct=3 / weightb=1 / open_gop=0 / weightp=2 / keyint=250 / keyint_min=25 / scenecut=40 / intra_refresh=0 / rc_lookahead=60 / rc=2pass / mbtree=1 / bitrate=2100 / ratetol=1.0 / qcomp=0.60 / qpmin=0 / qpmax=69 / qpstep=4 / cplxblur=20.0 / qblur=0.5 / ip_ratio=1.40 / aq=1:1.00
Язык : Russian
Default : Да
Forced : Нет
Аудио
Идентификатор : 2
Формат : AC-3
Формат/Информация : Audio Coding 3
Расширение режима : CM (complete main)
Параметр Endianness формата : Big
Режим смешивания : Header stripping
Идентификатор кодека : A_AC3
Продолжительность : 1 ч. 39 м.
Вид битрейта : Постоянный
Битрейт : 384 Кбит/сек
Каналы : 2 канала
Расположение каналов : Front: L R
Частота : 48,0 КГц
Битовая глубина : 16 бит
Метод сжатия : С потерями
Размер потока : 272 Мбайт (15%)
Заголовок : Русский
Язык : Russian
Default : Да
Forced : Нет
Скриншоты:                    Время раздачи: с 12:00 до 24:00 по Москве (выходные круглосуточно), до 10 скачавших[H.264]
Вне форума [Профиль] [ЛС]
Показать сообщения:    
Ответить на тему

Текущее время: Сегодня 02:12

Часовой пояс: GMT + 3



Вы не можете начинать темы
Вы не можете отвечать на сообщения
Вы не можете редактировать свои сообщения
Вы не можете удалять свои сообщения
Вы не можете голосовать в опросах
Вы не можете прикреплять файлы к сообщениям
Вы не можете скачивать файлы