Сегодня идет свободное скачивание без начисления Download

Разные судьбы (1956) [H.264] DVDRip [Реставрация]

Ответить на тему
 
Автор
Сообщение

Omen ®

Стаж: 5 лет 10 месяцев

Сообщений: 184329

Торрент-статистика

Пост 09-Янв-2013 00:32

[Цитировать]

-Разные судьбы (1956) [H.264] DVDRip [Реставрация]- Русское название: Разные судьбы
Год выпуска: 1956
Жанр: Мелодрама
Описание фильма:
Молодые ленинградцы, вчерашние школьники, вступают во взрослую жизнь. Соня влюблена в Степу, но он любит Таню, а Таня отдает предпочтение Феде. Отвергнутый Степа уезжает в далекий сибирский город и начинает работать на заводе, учась в вечернем институте...
Режиссер: Леонид Луков
Актеры: Татьяна Пилецкая, Юлиан Панич, Георгий Юматов, Лев Свердлин, Ольга Жизнева, Татьяна Конюхова, Сергей Блинников, Ада Войцик, Владимир Дорофеев, Всеволод Санаев, Константин Сорокин, Бруно Фрейндлих, Сергей Филиппов, Муза Крепкогорская, Ирина Зарубин
Продолжительность: 01:40:15

Видеокодек: MPEG-4 AVC/H.264
Битрейт видео: ~1961 Кбит/сек
Размер кадра: 768x576
Качество видео: DVDRip
Субтитры: отключаемые английский язык
Аудиокодек: AC3 5.1, AC 2.0
Битрейт аудио:
Audio 1:AC3 5.1, 448 Кбит/сек
Audio 2:AC3 2.0, 112 Кбит/сек
Полная реставрация изображения и звука

MediaInfo:

Общее
Уникальный идентификатор : 168348648403719580577546155723716462494 (0x7EA6C532C2870C1E037BA147C20E879E)
Полное имя : G:\new 092012\!DVD\Разные судьбы (Леонид Луков) [1956 г., мелодрама, DVD9\Разные судьбы DVDRip\Разные судьбы [H.264] DVDRip.mkv
Формат : Matroska
Версия формата : Version 2
Размер файла : 1,80 Гбайт
Продолжительность : 1 ч. 40 м.
Общий поток : 2572 Кбит/сек
Программа кодирования : Lavf51.12.1
Библиотека кодирования : Lavf51.12.1
Видео
Идентификатор : 1
Формат : AVC
Формат/Информация : Advanced Video Codec
Профиль формата : [url=mailto:[email protected]][email protected][/url]
Параметр CABAC формата : Нет
Параметр ReFrames формата : 1 кадр
Параметр GOP формата : M=1, N=12
Идентификатор кодека : V_MPEG4/ISO/AVC
Продолжительность : 1 ч. 40 м.
Битрейт : 1961 Кбит/сек
Ширина : 768 пикселей
Высота : 576 пикселей
Соотношение сторон : 4:3
Режим частоты кадров : Постоянный
Частота кадров : 25,000 кадров/сек
Цветовое пространство : YUV
Субдискретизация насыщенности : 4:2:0
Битовая глубина : 8 бит
Тип развёртки : Прогрессивная
Бит/(Пиксели*Кадры) : 0.177
Размер потока : 1,37 Гбайт (76%)
Default : Да
Forced : Нет
Аудио #1
Идентификатор : 2
Формат : AC-3
Формат/Информация : Audio Coding 3
Расширение режима : CM (complete main)
Параметр Endianness формата : Big
Идентификатор кодека : A_AC3
Продолжительность : 1 ч. 40 м.
Вид битрейта : Постоянный
Битрейт : 448 Кбит/сек
Каналы : 6 каналов
Расположение каналов : Front: L C R, Side: L R, LFE
Частота : 48,0 КГц
Битовая глубина : 16 бит
Метод сжатия : С потерями
Размер потока : 321 Мбайт (17%)
Default : Да
Forced : Нет
Аудио #2
Идентификатор : 4
Формат : AC-3
Формат/Информация : Audio Coding 3
Расширение режима : CM (complete main)
Параметр Endianness формата : Big
Идентификатор кодека : A_AC3
Продолжительность : 1 ч. 40 м.
Вид битрейта : Постоянный
Битрейт : 112 Кбит/сек
Каналы : 2 канала
Расположение каналов : Front: L R
Частота : 48,0 КГц
Битовая глубина : 16 бит
Метод сжатия : С потерями
Размер потока : 80,3 Мбайт (4%)
Default : Да
Forced : Нет
Текст
Идентификатор : 3
Формат : VobSub
Идентификатор кодека : S_VOBSUB
Идентификатор кодека/Информация : The same subtitle format used on DVDs
Default : Да
Forced : Нет
Скриншоты:
         
         
Вне форума [Профиль] [ЛС]
Показать сообщения:    
Ответить на тему

Текущее время: Сегодня 04:20

Часовой пояс: GMT + 3



Вы не можете начинать темы
Вы не можете отвечать на сообщения
Вы не можете редактировать свои сообщения
Вы не можете удалять свои сообщения
Вы не можете голосовать в опросах
Вы не можете прикреплять файлы к сообщениям
Вы не можете скачивать файлы