Сегодня идет свободное скачивание без начисления Download

Им покоряется небо (1963) [H.264] DVDRip

Ответить на тему
 
Автор
Сообщение

Omen ®

Стаж: 5 лет 11 месяцев

Сообщений: 184329

Торрент-статистика

Пост 08-Янв-2013 23:08

[Цитировать]

-Им покоряется небо (1963) [H.264] DVDRip- Русское название: Им покоряется небо
Год выпуска: 1963
Жанр: Драма, Военный
Описание фильма:
Летчику-испытателю Алексею Колчину было поручено первому поднять в воздух реактивный самолет и указать конструкторам на его недостатки. Первые испытания прошли успешно. Но во время работы над усовершенствованием машины, двигатель взорвался и Колчин погиб. И теперь Сергей Шаров, внимательно изучив рекомендации друга, записанные на магнитофонную пленку, делает вторую попытку...
Режиссер: Татьяна Лиознова
Актеры: Николай Рыбников, Владимир Седов, Светлана Светличная, Евгений Евстигнеев, Олег Жаков, Сергей Блинников, Георгий Куликов, Николай Погодин, Иван Рыжов, Петр Щербаков
Продолжительность: 01:36:20

Видеокодек: MPEG-4 AVC/H.264
Битрейт видео: ~1960 Кбит/сек
Размер кадра: 768x576
Качество видео: DVDRip
Аудиокодек: AC3 2.0
Битрейт аудио: 192 Кбит/сек

MediaInfo:

Общее
Уникальный идентификатор : 168348648403719580577546155723716462494 (0x7EA6C532C2870C1E037BA147C20E879E)
Полное имя : G:\!V\Им покоряется небо DVDRip\Им покоряется небо.mkv
Формат : Matroska
Версия формата : Version 2
Размер файла : 1,48 Гбайт
Продолжительность : 1 ч. 36 м.
Общий поток : 2195 Кбит/сек
Программа кодирования : Lavf51.12.1
Библиотека кодирования : Lavf51.12.1
Видео
Идентификатор : 1
Формат : AVC
Формат/Информация : Advanced Video Codec
Профиль формата : [url=mailto:[email protected]][email protected][/url]
Параметр CABAC формата : Нет
Параметр ReFrames формата : 1 кадр
Параметр GOP формата : M=1, N=12
Идентификатор кодека : V_MPEG4/ISO/AVC
Продолжительность : 1 ч. 36 м.
Битрейт : 1960 Кбит/сек
Ширина : 768 пикселей
Высота : 576 пикселей
Соотношение сторон : 4:3
Режим частоты кадров : Постоянный
Частота кадров : 23,976 кадра/сек
Цветовое пространство : YUV
Субдискретизация насыщенности : 4:2:0
Битовая глубина : 8 бит
Тип развёртки : Прогрессивная
Бит/(Пиксели*Кадры) : 0.185
Размер потока : 1,32 Гбайт (89%)
Default : Да
Forced : Нет
Аудио
Идентификатор : 2
Формат : AC-3
Формат/Информация : Audio Coding 3
Расширение режима : CM (complete main)
Параметр Endianness формата : Big
Идентификатор кодека : A_AC3
Продолжительность : 1 ч. 36 м.
Вид битрейта : Постоянный
Битрейт : 192 Кбит/сек
Каналы : 2 канала
Расположение каналов : Front: L R
Частота : 48,0 КГц
Битовая глубина : 16 бит
Метод сжатия : С потерями
Размер потока : 132 Мбайт (9%)
Default : Да
Forced : Нет
Скриншоты:
         
         
Вне форума [Профиль] [ЛС]
Показать сообщения:    
Ответить на тему

Текущее время: Сегодня 18:11

Часовой пояс: GMT + 3



Вы не можете начинать темы
Вы не можете отвечать на сообщения
Вы не можете редактировать свои сообщения
Вы не можете удалять свои сообщения
Вы не можете голосовать в опросах
Вы не можете прикреплять файлы к сообщениям
Вы не можете скачивать файлы