Today is a free download without charge Download

Семь нянек (1962) [H.264] DVDRip

Reply to topic
 
Author
Message

Omen ®

Longevity: 6 years 5 months

Posts: 171875

Торрент-статистика

Post 08-Jan-2013 23:00

[Quote]

-Семь нянек (1962) [H.264] DVDRip- Русское название: Семь нянек
Год выпуска: 1962
Жанр: Комедия
Описание фильма:
Молодежная бригада часового завода взяла на воспитание подростка-правонарушителя. Хитрый воспитанник долгое время ставил в затруднительное положение доверчивых "нянек", но в конце концов смирился с их напором и стал полноправным членом дружного коллектива.
Режиссер: Ролан Быков
Актеры: Семен Морозов, Владимир Ивашов, Валентин Буров, Татьяна Надеждина, Микаэла Дроздовская, Н. Батырева, В. Григорьева, Т. Карева, Виктор Хохряков, Валентин Зубков, Алексей Бахарь, Алексей Грибов, Зиновий Гердт, Эммануил Геллер, Рина Зеленая, Вера М.Орлова
Продолжительность: 01:12:04

Видеокодек: MPEG-4 AVC/H.264
Битрейт видео: ~2052 Кбит/сек
Размер кадра: 720x576
Качество видео: DVDRip
Аудиокодек: AC3 2.0
Битрейт аудио: 192 Кбит/сек

Знаете ли вы,что...

Число семь оказалось очень удачным для героя фильма актера Семена Морозова. Он еще сыграл в незабываемого ефрейтора Збруева в замечательной комедии "Семь невест Ефрейтора Збруева"

MediaInfo:

Общее
Уникальный идентификатор : 198492822951031682650301725087714417922 (0x955453BFE36E0EC1952BE57252329D02)
Полное имя : G:\!V\Семь нянек (1962) DVDRip\Семь нянек (1962) [H.264] DVDRip.mkv
Формат : Matroska
Версия формата : Version 4 / Version 2
Размер файла : 1,15 Гбайт
Продолжительность : 1 ч. 12 м.
Общий поток : 2289 Кбит/сек
Дата кодирования : UTC 2010-02-22 21:41:31
Программа кодирования : mkvmerge v5.9.0 ('On The Loose') built on Dec 9 2012 15:37:01
Библиотека кодирования : libebml v1.3.0 + libmatroska v1.4.0
Видео
Идентификатор : 1
Формат : AVC
Формат/Информация : Advanced Video Codec
Профиль формата : [url=mailto:[email protected]][email protected][/url]
Параметр CABAC формата : Нет
Параметр ReFrames формата : 2 кадра
Параметр GOP формата : M=1, N=12
Режим смешивания : Header stripping
Идентификатор кодека : V_MPEG4/ISO/AVC
Продолжительность : 1 ч. 12 м.
Битрейт : 2052 Кбит/сек
Ширина : 720 пикселей
Высота : 576 пикселей
Соотношение сторон : 4:3
Соотношение сторон в оригинале : 4:3
Режим частоты кадров : Постоянный
Частота кадров : 23,976 кадра/сек
Стандарт вещания : NTSC
Цветовое пространство : YUV
Субдискретизация насыщенности : 4:2:0
Битовая глубина : 8 бит
Тип развёртки : Прогрессивная
Бит/(Пиксели*Кадры) : 0.206
Размер потока : 1,03 Гбайт (90%)
Язык : Russian
Default : Да
Forced : Нет
Основные цвета : BT.601 NTSC
Характеристики трансфера : BT.601
Коэффициенты матрицы : BT.601
Аудио
Идентификатор : 2
Формат : AC-3
Формат/Информация : Audio Coding 3
Расширение режима : CM (complete main)
Параметр Endianness формата : Big
Режим смешивания : Header stripping
Идентификатор кодека : A_AC3
Продолжительность : 1 ч. 12 м.
Вид битрейта : Постоянный
Битрейт : 192 Кбит/сек
Каналы : 2 канала
Расположение каналов : Front: L R
Частота : 48,0 КГц
Битовая глубина : 16 бит
Метод сжатия : С потерями
Задержка видео : 2 мс.
Размер потока : 99,0 Мбайт (8%)
Язык : Russian
Default : Да
Forced : Нет
Скриншоты:
         
         
Other forum [Profile] [PM]
Display posts from previous:    
Reply to topic

The time now is: Today 05:30

All times are GMT + 3 Hours



You cannot post new topics in this forum
You cannot reply to topics in this forum
You cannot edit your posts in this forum
You cannot delete your posts in this forum
You cannot vote in polls in this forum
You cannot attach files in this forum
You cannot download files in this forum