Сегодня идет свободное скачивание без начисления Download

Мой младший брат (1962) [H.264] DVDRip

Ответить на тему
 
Автор
Сообщение

Omen ®

Стаж: 6 лет 1 месяц

Сообщений: 184308

Торрент-статистика

Пост 08-Янв-2013 22:56

[Цитировать]

-Мой младший брат (1962) [H.264] DVDRip- Русское название: Мой младший брат
Год выпуска: 1962
Жанр: Драма
Описание фильма:
Позади выпускные экзамены — и четверка школьных друзей решает махнуть в Прибалтику, подальше от надоевшей опеки взрослых. Брат одного из героев пытается внушить им что-то правильное насчет серьезного отношения к жизни — но они не меняют своего «безответственного» решения…
Режиссер: Александр Зархи
Актеры: Андрей Миронов, Александр Збруев, Олег Даль, Олег Ефремов, Иван Савкин, Валентин Кулик, Людмила Марченко, Ян Янакиев, Сергей Курилов, Михаил Названов, Олег Голубицкий
Продолжительность: 01:38:03

Видеокодек: MPEG-4 AVC/H.264
Битрейт видео: ~2039 Кбит/сек
Размер кадра: 720x576
Качество видео: DVDRip
Аудиокодек: AC3 2.0
Битрейт аудио: 192 Кбит/сек

MediaInfo:

Общее
Уникальный идентификатор : 234393390037282551919631491453954461387 (0xB056865D7B6C1D98B48F465A24028ECB)
Полное имя : G:\!V\Мой младший брат (1962)\Мой младший брат DVDRip\Мой младший брат DVDRip.mkv
Формат : Matroska
Версия формата : Version 4 / Version 2
Размер файла : 1,56 Гбайт
Продолжительность : 1 ч. 38 м.
Общий поток : 2276 Кбит/сек
Дата кодирования : UTC 2010-02-22 21:41:31
Программа кодирования : mkvmerge v5.9.0 ('On The Loose') built on Dec 9 2012 15:37:01
Библиотека кодирования : libebml v1.3.0 + libmatroska v1.4.0
Видео
Идентификатор : 1
Формат : AVC
Формат/Информация : Advanced Video Codec
Профиль формата : [url=mailto:[email protected]][email protected][/url]
Параметр CABAC формата : Нет
Параметр ReFrames формата : 2 кадра
Параметр GOP формата : M=1, N=12
Режим смешивания : Header stripping
Идентификатор кодека : V_MPEG4/ISO/AVC
Продолжительность : 1 ч. 38 м.
Битрейт : 2039 Кбит/сек
Ширина : 720 пикселей
Высота : 576 пикселей
Соотношение сторон : 4:3
Соотношение сторон в оригинале : 4:3
Режим частоты кадров : Постоянный
Частота кадров : 23,976 кадра/сек
Стандарт вещания : NTSC
Цветовое пространство : YUV
Субдискретизация насыщенности : 4:2:0
Битовая глубина : 8 бит
Тип развёртки : Прогрессивная
Бит/(Пиксели*Кадры) : 0.205
Размер потока : 1,40 Гбайт (90%)
Язык : Russian
Default : Да
Forced : Нет
Основные цвета : BT.601 NTSC
Характеристики трансфера : BT.601
Коэффициенты матрицы : BT.601
Аудио
Идентификатор : 2
Формат : AC-3
Формат/Информация : Audio Coding 3
Расширение режима : CM (complete main)
Параметр Endianness формата : Big
Режим смешивания : Header stripping
Идентификатор кодека : A_AC3
Продолжительность : 1 ч. 38 м.
Вид битрейта : Постоянный
Битрейт : 192 Кбит/сек
Каналы : 2 канала
Расположение каналов : Front: L R
Частота : 48,0 КГц
Битовая глубина : 16 бит
Метод сжатия : С потерями
Задержка видео : 2 мс.
Размер потока : 135 Мбайт (8%)
Язык : Russian
Default : Да
Forced : Нет
Скриншоты:
         
         
Вне форума [Профиль] [ЛС]
Показать сообщения:    
Ответить на тему

Текущее время: Сегодня 17:09

Часовой пояс: GMT + 3



Вы не можете начинать темы
Вы не можете отвечать на сообщения
Вы не можете редактировать свои сообщения
Вы не можете удалять свои сообщения
Вы не можете голосовать в опросах
Вы не можете прикреплять файлы к сообщениям
Вы не можете скачивать файлы