Сегодня идет свободное скачивание без начисления Download

Анна Каренина (2 серии из 2) (1967) [H.264] DVDRip

Ответить на тему
 
Автор
Сообщение

Omen ®

Стаж: 5 лет 10 месяцев

Сообщений: 184329

Торрент-статистика

Пост 08-Янв-2013 22:52

[Цитировать]

-Анна Каренина (2 серии из 2) (1967) [H.264] DVDRip- Русское название: Анна Каренина
Год выпуска: 1967
Производство: СССР, Мосфильм
Жанр: Драма, мелодрама
Режиссер: Александр Зархи
Сценарий: Василий Катанян, Александр Зархи, Лев Толстой
Актеры: Татьяна Самойлова, Николай Гриценко, Василий Лановой, Юрий Яковлев, Анастасия Вертинская, Ия Саввина, Борис Голдаев, Майя Плисецкая, Лидия Сухаревская, Софья Пилявская, Александр Кайдановский, Елена Тяпкина, Андрей Тутышкин, Василий Сахновский, Вера Бурлакова, Юрий Волынцев, Кирилл Вац, Нина Делекторская, Владимир Цоппи, Николай Кейль, Анатолий Кубацкий, Александр Костомолоцкий, Валентин Кулик, Валентина Лановая, Анна Павлова, Аркадий Цинман, Михаил Сидоркин, Николай Яновский, Михаил Погоржельский, Эрвин Кнаусмюллер, Лариса Жуковская, Евгений Гуров, Семен Бардин, Николай Сибейкин
Описание фильма:
Фильм снят по мотивам одноименного романа русского писателя Льва Толстого. «Все счастливые семьи похожи друг на друга, каждая несчастливая семья несчастлива по-своему» — с этих слов начинается книга. В основе мелодрамы — трагическая история любви и измены, судьба женщины, ради страсти решившейся бесповоротно изменить свою жизнь.
Анна Каренина, не в силах отказаться от своих чувств к избраннику, отвергает мораль светского общества, пытаясь защитить свое право на любовь. Муж разлучает Анну с сыном, ее знакомые отворачиваются от нее…

Продолжительность: 01:12:27 + 01:04:21
Качество видео: DVDRip (AVC)
Видеокодек: MPEG-4 AVC
Битрейт видео: 2498 Кбит/сек
Размер кадра: [email protected]
Аудио : Русский, AC3, 6 ch, 448 Кбит/сек

Знаете ли вы, что...

  • Занимает по посещаемости 89-е место среди отечественных фильмов за всю историю советского кинопроката

Из книги «3500 кинорецензий»

Роман-экранизация с элементами мелодрамы
«Анна Каренина» — самое экранизируемое произведение Льва Толстого, не только у нас, но и во всём мире. Оно и понятно: в основе лежит мелодрама, типичный адюльтер, история любви и измены, семейного счастья-несчастья. И в ожидании новой отечественной версии в трактовке Сергея Соловьёва было странно убедиться, что и в заведомой «клюкве», не так давно сочинённой опять американцами (а снимали-то они свою «Анну Каренину» в России!), вдруг прорываются прежде неведомые мотивы. Левин там оказался почти двойником Льва Толстого, во всяком случае, вторым по значению персонажем, а в заглавной героине ближе к финалу обнаружились явные черты невротички и наркоманки, чья гибель была уже неизбежной. Тем удивительнее теперь воспринимаются упрёки некоторых наших критиков, которые даже образ, созданный Татьяной Самойловой в советской экранизации «Анны Карениной», где и речи не могло быть о психической неуравновешенности этого женского персонажа, посчитали излишне нервозным и истеричным.
Идеологическая социалистическая эстетика не терпела никакого надлома и надрыва в чувствах героев ни в современности, ни в прошлом, пусть и на материале классики. Но поразительно стойкий зрительский успех фильма-спектакля «Анна Каренина» (4-е место в 1953 году с результатом 34,7 млн. на серию) и варианта, выпущенного в 1968 году, так и иных экранизаций русской литературы («Воскресение», «Анна на шее», «Идиот», «Без вины виноватые», «Братья Карамазовы», «Живой труп» 1952 года, «Горячее сердце», «Гранатовый браслет») свидетельствовал всё-таки о стремлении публики воспринимать выдуманное минувшее именно с «горячим сердцем» и на пределе эмоций. В этом смысле Татьяна Самойлова с её актёрской темой «изломанности души» наиболее точно подходила для роли Анны Карениной как любящей женщины, бунтующей против лживой морали общества. А не всеми знаемые, но, вероятно, интуитивно угадываемые зрителями личные отношения, которые прежде были у актрисы с Василием Лановым, исполнителем роли Вронского, как бы придавали заэкранный резкий отсвет истории, рассказанной Толстым.
И то, что в итоге «Анна Каренина» Александра Зархи стала за всю историю советского кино второй по посещаемости экранизацией классики после первой серии «Войны и мира», доказывает, что ориентация на чувственность и даже мелодраматизацию этого романа в ущерб его полифоничности и социально-историческому пафосу оказалась лучше всего востребованной отечественной аудиторией. Любопытно, что через 8 лет появившийся фильм-балет Маргариты Пилихиной на основе спектакля, в котором вновь участвовали композитор Родион Щедрин и балерина Майя Плисецкая, сотрудничавшие ещё над версией Зархи, тоже неожиданно для произведения такого жанра вызвал интерес публики — при тираже всего в 228 копий картину посмотрели почти полтора миллиона зрителей.
1998

MediaInfo

Код:
Общее
Уникальный идентификатор                 : 213885033430893127149739670294699483956 (0xA0E8C2515E4AFAB6B5215E3D3A0CA334)
Полное имя                               : E:\Раздачи\Анна Каренина (2 серии из 2) (1967) [H.264] DVDRip\Анна Каренина.1967.1 серия.mkv
Формат                                   : Matroska
Версия формата                           : Version 2
Размер файла                             : 1,49 Гбайт
Продолжительность                        : 1 ч. 12 м.
Общий поток                              : 2948 Кбит/сек
Дата кодирования                         : UTC 2012-07-18 19:05:02
Программа кодирования                    : mkvmerge v5.7.0 ('The Whirlwind') built on Jul  8 2012 20:08:51
Библиотека кодирования                   : libebml v1.2.3 + libmatroska v1.3.0
Видео
Идентификатор                            : 1
Формат                                   : AVC
Формат/Информация                        : Advanced Video Codec
Профиль формата                          : [url=mailto:[email protected]][email protected][/url]
Параметр CABAC формата                   : Да
Параметр ReFrames формата                : 16 кадров
Идентификатор кодека                     : V_MPEG4/ISO/AVC
Продолжительность                        : 1 ч. 12 м.
Битрейт                                  : 2498 Кбит/сек
Ширина                                   : 712 пикселей
Высота                                   : 408 пикселей
Соотношение сторон                       : 2,059
Соотношение сторон в оригинале           : 2,060
Частота кадров                           : 25,000 кадров/сек
Цветовое пространство                    : YUV
Субдискретизация насыщенности            : 4:2:0
Битовая глубина                          : 8 бит
Тип развёртки                            : Прогрессивная
Бит/(Пиксели*Кадры)                      : 0.344
Размер потока                            : 1,24 Гбайт (83%)
Заголовок                                : Анна Каренина.1967.1 серия
Библиотека кодирования                   : x264 core 125 r2200 999b753
Настройки программы                      : cabac=1 / ref=16 / deblock=1:-1:-1 / analyse=0x3:0x133 / me=umh / subme=11 / psy=1 / psy_rd=1.00:0.20 / mixed_ref=1 / me_range=48 / chroma_me=1 / trellis=2 / 8x8dct=1 / cqm=0 / deadzone=21,11 / fast_pskip=0 / chroma_qp_offset=-3 / threads=12 / lookahead_threads=2 / sliced_threads=0 / nr=0 / decimate=0 / interlaced=0 / bluray_compat=0 / constrained_intra=0 / bframes=11 / b_pyramid=2 / b_adapt=2 / b_bias=0 / direct=3 / weightb=1 / open_gop=0 / weightp=2 / keyint=250 / keyint_min=25 / scenecut=40 / intra_refresh=0 / rc_lookahead=60 / rc=2pass / mbtree=1 / bitrate=2498 / ratetol=1.0 / qcomp=0.60 / qpmin=0 / qpmax=69 / qpstep=4 / cplxblur=20.0 / qblur=0.5 / vbv_maxrate=50000 / vbv_bufsize=62500 / nal_hrd=none / ip_ratio=1.40 / aq=1:1.10
Язык                                     : Russian
Default                                  : Да
Forced                                   : Нет
Основные цвета                           : BT.470-6 System B, BT.470-6 System G, BT.601-6 625, BT.1358 625, BT.1700 625 PAL, BT.1700 625 SECAM
Характеристики трансфера                 : BT.470-6 System B, BT.470-6 System G
Коэффициенты матрицы                     : BT.470-6 System B, BT.470-6 System G, BT.601-6 625, BT.1358 625, BT.1700 625 PAL, BT.1700 625 SECAM, IEC 61966-2-4 601
Аудио
Идентификатор                            : 2
Формат                                   : AC-3
Формат/Информация                        : Audio Coding 3
Расширение режима                        : CM (complete main)
Параметр Endianness формата              : Big
Идентификатор кодека                     : A_AC3
Продолжительность                        : 1 ч. 12 м.
Вид битрейта                             : Постоянный
Битрейт                                  : 448 Кбит/сек
Каналы                                   : 6 каналов
Расположение каналов                     : Front: L C R, Side: L R, LFE
Частота                                  : 48,0 КГц
Битовая глубина                          : 16 бит
Метод сжатия                             : С потерями
Размер потока                            : 232 Мбайт (15%)
Заголовок                                : Оригинал AC-3; 16 bit 48 Khz; 6ch 448 Kbps; CBR
Язык                                     : Russian
Default                                  : Да
Forced                                   : Нет
Общее
Уникальный идентификатор                 : 229153600217173286165202800661309527100 (0xAC6560C8081503B4BEB5E28090C5943C)
Полное имя                               : E:\Раздачи\Анна Каренина (2 серии из 2) (1967) [H.264] DVDRip\Анна Каренина.1967.2 серия.mkv
Формат                                   : Matroska
Версия формата                           : Version 2
Размер файла                             : 1,32 Гбайт
Продолжительность                        : 1 ч. 4 м.
Общий поток                              : 2947 Кбит/сек
Дата кодирования                         : UTC 2012-07-19 10:19:23
Программа кодирования                    : mkvmerge v5.7.0 ('The Whirlwind') built on Jul  8 2012 20:08:51
Библиотека кодирования                   : libebml v1.2.3 + libmatroska v1.3.0
Видео
Идентификатор                            : 1
Формат                                   : AVC
Формат/Информация                        : Advanced Video Codec
Профиль формата                          : [url=mailto:[email protected]][email protected][/url]
Параметр CABAC формата                   : Да
Параметр ReFrames формата                : 16 кадров
Идентификатор кодека                     : V_MPEG4/ISO/AVC
Продолжительность                        : 1 ч. 4 м.
Битрейт                                  : 2498 Кбит/сек
Ширина                                   : 712 пикселей
Высота                                   : 408 пикселей
Соотношение сторон                       : 2,059
Соотношение сторон в оригинале           : 2,060
Частота кадров                           : 25,000 кадров/сек
Цветовое пространство                    : YUV
Субдискретизация насыщенности            : 4:2:0
Битовая глубина                          : 8 бит
Тип развёртки                            : Прогрессивная
Бит/(Пиксели*Кадры)                      : 0.344
Размер потока                            : 1,10 Гбайт (83%)
Заголовок                                : Анна Каренина.1967.2 серия
Библиотека кодирования                   : x264 core 125 r2200 999b753
Настройки программы                      : cabac=1 / ref=16 / deblock=1:-1:-1 / analyse=0x3:0x133 / me=umh / subme=11 / psy=1 / psy_rd=1.00:0.20 / mixed_ref=1 / me_range=48 / chroma_me=1 / trellis=2 / 8x8dct=1 / cqm=0 / deadzone=21,11 / fast_pskip=0 / chroma_qp_offset=-3 / threads=12 / lookahead_threads=2 / sliced_threads=0 / nr=0 / decimate=0 / interlaced=0 / bluray_compat=0 / constrained_intra=0 / bframes=11 / b_pyramid=2 / b_adapt=2 / b_bias=0 / direct=3 / weightb=1 / open_gop=0 / weightp=2 / keyint=250 / keyint_min=25 / scenecut=40 / intra_refresh=0 / rc_lookahead=60 / rc=2pass / mbtree=1 / bitrate=2498 / ratetol=1.0 / qcomp=0.60 / qpmin=0 / qpmax=69 / qpstep=4 / cplxblur=20.0 / qblur=0.5 / vbv_maxrate=50000 / vbv_bufsize=62500 / nal_hrd=none / ip_ratio=1.40 / aq=1:1.10
Язык                                     : Russian
Default                                  : Да
Forced                                   : Нет
Основные цвета                           : BT.470-6 System B, BT.470-6 System G, BT.601-6 625, BT.1358 625, BT.1700 625 PAL, BT.1700 625 SECAM
Характеристики трансфера                 : BT.470-6 System B, BT.470-6 System G
Коэффициенты матрицы                     : BT.470-6 System B, BT.470-6 System G, BT.601-6 625, BT.1358 625, BT.1700 625 PAL, BT.1700 625 SECAM, IEC 61966-2-4 601
Аудио
Идентификатор                            : 2
Формат                                   : AC-3
Формат/Информация                        : Audio Coding 3
Расширение режима                        : CM (complete main)
Параметр Endianness формата              : Big
Идентификатор кодека                     : A_AC3
Продолжительность                        : 1 ч. 4 м.
Вид битрейта                             : Постоянный
Битрейт                                  : 448 Кбит/сек
Каналы                                   : 6 каналов
Расположение каналов                     : Front: L C R, Side: L R, LFE
Частота                                  : 48,0 КГц
Битовая глубина                          : 16 бит
Метод сжатия                             : С потерями
Размер потока                            : 206 Мбайт (15%)
Заголовок                                : Оригинал AC-3; 16 bit 48 Khz; 6ch 448 Kbps; CBR
Язык                                     : Russian
Default                                  : Да
Forced                                   : Нет
Скриншоты:
         
         -Время раздачи: 9.00 - 23.00 (по мере возможности...)
Вне форума [Профиль] [ЛС]
Показать сообщения:    
Ответить на тему

Текущее время: Сегодня 06:12

Часовой пояс: GMT + 3



Вы не можете начинать темы
Вы не можете отвечать на сообщения
Вы не можете редактировать свои сообщения
Вы не можете удалять свои сообщения
Вы не можете голосовать в опросах
Вы не можете прикреплять файлы к сообщениям
Вы не можете скачивать файлы