Сегодня идет свободное скачивание без начисления Download

Стрелы Робин Гуда (1975) [H.264] DVDRip

Ответить на тему
 
Автор
Сообщение

Omen ®

Стаж: 6 лет

Сообщений: 184329

Торрент-статистика

Пост 08-Янв-2013 22:40

[Цитировать]

-Стрелы Робин Гуда (1975) DVDRip- Русское название: Стрелы Робин Гуда
Год выпуска: 1975
Жанр: Приключения
Страна: СССР
Студия: Рижская киностудия
Описание фильма:
Сюжетную основу фильма составляют несколько баллад о Робин Гуде - легендарном герое английских средневековых народных сказаний. Робин Гуд и его славные стрелки наводили ужас на церковников и феодалов, на всех тех, кто угнетает народ. Они появляются везде, где кому-то, ставшему жертвой произвола, необходима помощь…
Режиссер: Сергей Тарасов
Актеры: Борис Хмельницкий, Регина Разумова, Вия Артмане,Эдуард Павулс, Харий Ввейц и др.
Продолжительность: 01:31:14

Видеокодек: MPEG-4 AVC/H.264
Битрейт видео: ~1881 kb/s
Размер кадра: 1024 x 464
Качество видео: DVDRip
Аудиокодек: AC3 2.0
Битрейт аудио: 192 kb/s

MediaInfo

Общее
Уникальный идентификатор : 173152819872189688036295775183786361592 (0x824405239D79EDE6B0974E11200642F8)
Полное имя : Стрелы Робин Гуда.1976.x264.DVDRip.AVC.mkv
Формат : Matroska
Версия формата : Version 2
Размер файла : 1,32 Гбайт
Продолжительность : 1 ч. 31 м.
Общий поток : 2075 Кбит/сек
Дата кодирования : UTC 2012-12-20 06:43:42
Программа кодирования : mkvmerge v5.6.0 ('Kenya Kane') built on Jun 29 2012 15:01:44
Библиотека кодирования : libebml v1.2.3 + libmatroska v1.3.0
Видео
Идентификатор : 1
Формат : AVC
Формат/Информация : Advanced Video Codec
Профиль формата : [url=mailto:[email protected]][email protected][/url]
Параметр CABAC формата : Да
Параметр ReFrames формата : 5 кадров
Идентификатор кодека : V_MPEG4/ISO/AVC
Продолжительность : 1 ч. 31 м.
Битрейт : 1881 Кбит/сек
Ширина : 1024 пикселя
Высота : 464 пикселя
Соотношение сторон : 2,2:1
Режим частоты кадров : Постоянный
Частота кадров : 25,000 кадров/сек
Цветовое пространство : YUV
Субдискретизация насыщенности : 4:2:0
Битовая глубина : 8 бит
Тип развёртки : Прогрессивная
Бит/(Пиксели*Кадры) : 0.158
Размер потока : 1,17 Гбайт (89%)
Библиотека кодирования : x264 core 125 r2200 999b753
Настройки программы : cabac=1 / ref=5 / deblock=1:-2:-2 / analyse=0x3:0x111 / me=umh / subme=9 / psy=1 / psy_rd=0.00:0.10 / mixed_ref=1 / me_range=32 / chroma_me=1 / trellis=2 / 8x8dct=1 / cqm=0 / deadzone=21,11 / fast_pskip=0 / chroma_qp_offset=-1 / threads=3 / lookahead_threads=1 / sliced_threads=0 / nr=0 / decimate=1 / interlaced=0 / bluray_compat=0 / constrained_intra=0 / bframes=5 / b_pyramid=2 / b_adapt=0 / b_bias=0 / direct=1 / weightb=1 / open_gop=0 / weightp=2 / keyint=250 / keyint_min=25 / scenecut=40 / intra_refresh=0 / rc_lookahead=50 / rc=2pass / mbtree=1 / bitrate=1881 / ratetol=1.0 / qcomp=0.60 / qpmin=0 / qpmax=69 / qpstep=4 / cplxblur=20.0 / qblur=0.5 / ip_ratio=1.40 / aq=1:1.00
Default : Да
Forced : Нет
Аудио
Идентификатор : 2
Формат : AC-3
Формат/Информация : Audio Coding 3
Расширение режима : CM (complete main)
Параметр Endianness формата : Big
Идентификатор кодека : A_AC3
Продолжительность : 1 ч. 31 м.
Вид битрейта : Постоянный
Битрейт : 192 Кбит/сек
Каналы : 2 канала
Расположение каналов : Front: L R
Частота : 48,0 КГц
Битовая глубина : 16 бит
Метод сжатия : С потерями
Размер потока : 125 Мбайт (9%)
Default : Да
Forced : Нет
Скриншоты:          Время раздачи: С 13:00 до 21:00 (до 5 скачавших)Приятного просмотра!
Вне форума [Профиль] [ЛС]
Похожие темы
Форум Тема Автор Торрент Отв. Посл. сообщение
./templates/default/images/folder_dl.gif Фантастика, фэнтези, ужасы, мистика Владимир Стрельников | Приключения Василия Ромашкина, бортстрелка и некроманта (2016) [FB2] moralis
1 | 0

0 | 1625

15

2016-04-24 21:58
moralis Последнее
./templates/default/images/folder_dl.gif Фантастика, фэнтези, ужасы, мистика Владимир Стрельников | Опасные тропы. Рядовой срочной службы (2018) [FB2] }{@R0N
1 | 0

0 | 419

2

2018-10-10 20:44
}{@R0N Последнее
Показать сообщения:    
Ответить на тему

Текущее время: Сегодня 15:49

Часовой пояс: GMT + 3



Вы не можете начинать темы
Вы не можете отвечать на сообщения
Вы не можете редактировать свои сообщения
Вы не можете удалять свои сообщения
Вы не можете голосовать в опросах
Вы не можете прикреплять файлы к сообщениям
Вы не можете скачивать файлы