Today is a free download without charge Download

Астрал / Insidious (Джеймс Ван / James Wan) [2010, США, ужасы, триллер, DVDRip] DUB (R5)

Reply to topic
 
Author
Message

Vildanoff ®

Gender:

Longevity: 9 years

Posts: 82

Location: г. Уфа

Торрент-статистика

Post 22-Apr-2011 11:15

[Quote]

Астрал / Insidious«Это не дом населён призраками...»
Год выпуска: 2010
Страна: США
Киностудия: Automatik Entertainment, Blumhouse Productions
Жанр: ужасы, триллер
Продолжительность: 01:38:11
Перевод: Профессиональный (дублированный) лицензия
Cубтитры: нет
Оригинальная аудиодорожка: нет
Режиссер: Джеймс Ван / James Wan
В ролях: Патрик Уилсон, Роуз Бирн, Ти Кигэн Симпкинс, Эндрю Эстор, Лин Шэй, Ли Уоннелл, Энгус Сэмпсон, Барбара Херши, Корбетт Так, Хезер Токуини...
Роли дублировали: Евгений Пашин, Екатерина Брайковская, Татьяна Антонова, Ольга Радчук, Андрей Фединчик
Описание: Джош и Ринэй переезжают со своими детьми в новый дом, но не успевают толком распаковать вещи, как начинаются странные события. Необъяснимо перемещаются предметы, в детской звучат странные звуки… Но в настоящий ужас приходят родители, когда их десятилетний сын Далтон впадает в кому. Все усилия врачей в больнице помочь мальчику безуспешны.
Несколько месяцев спустя его возвращают домой, где за несчастным ребенком ухаживают мать и сиделка. Но загадочные явления в доме продолжаются. Отчаявшиеся родители готовы обратиться за помощью к кому угодно и вскоре выясняется, что Далтон в бессознательном состоянии связан с паранормальным миром…

Бюджет: $1 000 000

Качество видео: DVDRip
Формат видео: AVI
Видео: 720x304 (2.35:1), 25.000 fps, XVID ~1601 kbps avg
Аудио: 48 kHz, AC3, 6 ch, 384.00 kbps Constant

MediaInfo

D:\Видео\Кино\Astral.2010.D.DVDRip.avi
General
Complete name : D:\Видео\Кино\Astral.2010.D.DVDRip.avi
Format : AVI
Format/Info : Audio Video Interleave
File size : 1.37 GiB
Duration : 1h 38mn
Overall bit rate : 1 995 Kbps
Writing application : VirtualDubMod 1.5.4.1 (build 2178/release)
Writing library : VirtualDubMod build 2178/release
Video #0
ID : 0
Format : MPEG-4 Visual
Format profile : Advanced [email protected]
Format settings, BVOP : 2
Format settings, QPel : No
Format settings, GMC : No warppoints
Format settings, Matrix : Custom
Codec ID : XVID
Codec ID/Hint : XviD
Duration : 1h 38mn
Bit rate : 1 601 Kbps
Width : 720 pixels
Height : 304 pixels
Display aspect ratio : 2.35:1
Frame rate : 25.000 fps
Color space : YUV
Chroma subsampling : 4:2:0
Bit depth : 8 bits
Scan type : Progressive
Compression mode : Lossy
Bits/(Pixel*Frame) : 0.293
Stream size : 1.10 GiB (80%)
Writing library : XviD 58
Audio #1
ID : 1
Format : AC-3
Format/Info : Audio Coding 3
Mode extension : CM (complete main)
Codec ID : 2000
Duration : 1h 38mn
Bit rate mode : Constant
Bit rate : 384 Kbps
Channel(s) : 6 channels
Channel positions : Front: L C R, Side: L R, LFE
Sampling rate : 48.0 KHz
Bit depth : 16 bits
Compression mode : Lossy
Stream size : 270 MiB (19%)
Alignment : Split accross interleaves
Interleave, duration : 40 ms (1.00 video frame)
Interleave, preload duration : 500 ms
    

_________________
Other forum [Profile] [PM]
Similar theme
Forum Topic Author Torrent Replies Last Post
./templates/default/images/folder_dl.gif Фильмы 2011-2019 Астрал на улице Арлетт / 388 Arletta Avenue (Рэндолл Коул) (Триллер, 2011) BDRip _Night Speed_33rus
0 | 1

0 | 1124

3

2013-07-23 09:52
_Night Speed_33rus Latest
Display posts from previous:    
Reply to topic

The time now is: Today 09:59

All times are GMT + 3 Hours



You cannot post new topics in this forum
You cannot reply to topics in this forum
You cannot edit your posts in this forum
You cannot delete your posts in this forum
You cannot vote in polls in this forum
You cannot attach files in this forum
You cannot download files in this forum