Today is a free download without charge Download

Эдвард руки-ножницы /Edward Scissorhands ( Тим Бёртон ,фэнтези, драма, мелодрама [1990] BDRip 720p )

Reply to topic
 
Author
Message

Delia ®

Gender:

Longevity: 10 years

Posts: 1821

Торрент-статистика

Post 22-Apr-2011 09:27

[Quote]

Эдвард руки-ножницыEdward Scissorhands Год выпуска:1990
Страна: США
Жанр: фэнтези, драма, мелодрама
Продолжительность:01:44:59
Перевод: Профессиональный (многоголосый закадровый)
Режиссер:Тим Бёртон
Продюссер: Тим Бёртон, Денис Ди Нови, Ричард Хашимото
Сценарий: Тим Бёртон, Кэролайн Томпсон
Бюджет: $20 000 000
Премьера в мире:6 декабря 1990
В ролях:Джонни Депп, Вайнона Райдер, Дайян Уист, Энтони Майкл Холл, Кэти Бэйкер, Роберт Оливери, Кончата Феррелл, Кэролайн Аарон, Дик Энтони Уильямс, О-Лан Джонс, Винсент Прайс, Алан Аркин, Сьюзэн Бломмаерт, Линда Перри, Джон Дэвидсон, Бифф Йеджер, Марти Гринберг, Брайан Ларкин, Джон МакМахон, Виктория Прайс, Стюарт Ланкастер
Описание:Одинокий старый ученый создал человеческое существо. Но не успел доделать его до конца и умер. У сотворенного им молодого человека не хватает рук — вместо них у него нечто вроде ножниц — и он вынужден жить в заброшенном доме в полном одиночестве. Но вот однажды он знакомится с прекрасной девушкой, которая смогла оценить его доброе сердце…
Качество:BDRip 720p (Blu-ray CEE 1080p )
Формат:MKV
Видео кодек: H.264
Аудио кодек: AC3
Видео: English, 4809 Кбит/сек, 1280*688 (1,860), в 23,976 кадр/сек, AVC ([email protected])
Аудио: Russian, 640 Кбит/сек, 48,0 КГц, 16 бит, 6 канала(ов), AC-3
Аудио:English, 512 Кбит/сек, 48,0 КГц, 16 бит, 4 канала(ов), AC-3
Субтитры:Russian, English - VobSub

MediaInfo:

Oбщее
Уникальный идентификатор : 230968998693654033952186430129990898124 (0xADC302D63310315093E079262E0991CC)
Полное имя : E:\торрент\Edward Scissorhands(1990) BDRip 720p.mkv
Формат : Matroska
Размер файла : 4,37 Гбайт
Продолжительность : 1 ч. 44 м.
Общий поток : 5962 Кбит/сек
Дата кодирования : UTC 2011-04-22 04:59:59
Программа кодирования : mkvmerge v4.6.0 ('Still Crazy After All These Years') built on Mar 10 2011 02:50:32
Библиотека кодирования : libebml v1.2.0 + libmatroska v1.1.0
Видео
Идентификатор : 1
Формат : AVC
Формат/Информация : Advanced Video Codec
Профиль формата : [email protected]
Параметр CABAC формата : Да
Параметр ReFrames формата : 12 кадры
Идентификатор кодека : V_MPEG4/ISO/AVC
Продолжительность : 1 ч. 44 м.
Битрейт : 4809 Кбит/сек
Ширина : 1280 пикс.
Высота : 688 пикс.
Соотношение сторон : 1,860
Частота кадров : 23,976 кадр/сек
Цветовое пространство : YUV
Подвыборка цветности : 4:2:0
Битовая глубина : 8 бит
Тип развёртки : Прогрессивная
Бит/(Пиксели*Кадры) : 0.228
Размер потока : 3,44 Гбайт (79%)
Библиотека кодирования : x264 core 114 r1924 08d04a4
Настройки программы : cabac=1 / ref=12 / deblock=1:-2:-2 / analyse=0x3:0x133 / me=umh / subme=7 / psy=1 / psy_rd=1.00:0.15 / mixed_ref=1 / me_range=32 / chroma_me=1 / trellis=2 / 8x8dct=1 / cqm=0 / deadzone=21,11 / fast_pskip=0 / chroma_qp_offset=-3 / threads=6 / sliced_threads=0 / nr=0 / decimate=1 / interlaced=0 / constrained_intra=0 / bframes=4 / b_pyramid=2 / b_adapt=1 / b_bias=0 / direct=1 / weightb=1 / open_gop=0 / weightp=2 / keyint=250 / keyint_min=24 / scenecut=40 / intra_refresh=0 / rc_lookahead=50 / rc=2pass / mbtree=1 / bitrate=4809 / ratetol=1.0 / qcomp=0.80 / qpmin=5 / qpmax=51 / qpstep=4 / cplxblur=20.0 / qblur=0.5 / ip_ratio=1.40 / aq=1:1.00
Язык : English
Аудио #1
Идентификатор : 2
Формат : AC-3
Формат/Информация : Audio Coding 3
Расширение режима : CM (complete main)
Идентификатор кодека : A_AC3
Продолжительность : 1 ч. 44 м.
Вид битрейта : Постоянный
Битрейт : 640 Кбит/сек
Канал(ы) : 6 канала(ов)
Расположение каналов : Front: L C R, Side: L R, LFE
Частота : 48,0 КГц
Битовая глубина : 16 бит
Метод сжатия : С потерями
Размер потока : 481 Мбайт (11%)
Язык : Russian
Аудио #2
Идентификатор : 3
Формат : AC-3
Формат/Информация : Audio Coding 3
Расширение режима : CM (complete main)
Идентификатор кодека : A_AC3
Продолжительность : 1 ч. 44 м.
Вид битрейта : Постоянный
Битрейт : 512 Кбит/сек
Канал(ы) : 4 канала(ов)
Расположение каналов : Front: L C R, Side: C
Частота : 48,0 КГц
Битовая глубина : 16 бит
Метод сжатия : С потерями
Размер потока : 384 Мбайт (9%)
Язык : English
Текст #1
Идентификатор : 4
Формат : VobSub
Режим смешивания : zlib
Идентификатор кодека : S_VOBSUB
Идентификатор кодека/Информация : The same subtitle format used on DVDs
Язык : Russian
Текст #2
Идентификатор : 5
Формат : VobSub
Режим смешивания : zlib
Идентификатор кодека : S_VOBSUB
Идентификатор кодека/Информация : The same subtitle format used on DVDs
Язык : English
Меню
00:00:00.000 : en:00:00:00.000
00:02:45.999 : en:00:02:45.999
00:05:19.110 : en:00:05:19.110
00:12:25.620 : en:00:12:25.620
00:16:36.621 : en:00:16:36.621
00:28:32.502 : en:00:28:32.502
00:31:27.302 : en:00:31:27.302
00:33:29.007 : en:00:33:29.007
00:35:29.669 : en:00:35:29.669
00:38:15.877 : en:00:38:15.877
00:39:48.678 : en:00:39:48.678
00:45:04.410 : en:00:45:04.410
00:47:38.856 : en:00:47:38.856
00:54:38.567 : en:00:54:38.567
00:56:57.539 : en:00:56:57.539
01:01:18.800 : en:01:01:18.800
01:04:40.043 : en:01:04:40.043
01:09:22.450 : en:01:09:22.450
01:15:51.338 : en:01:15:51.338
01:19:05.157 : en:01:19:05.157
01:24:57.676 : en:01:24:57.676
01:27:06.555 : en:01:27:06.555
01:37:04.360 : en:01:37:04.360
01:39:46.814 : en:01:39:46.814

Скриншоты

       

_________________
Человек – это канат, натянутый между животным и сверхчеловеком, – канат над пропастью.
В человеке ценно то, что он мост, а не цель. Фридрих Ницше


Last edited by Delia on 2011-08-26 18:50; edited 2 times in total
Other forum [Profile] [PM]
Display posts from previous:    
Reply to topic

The time now is: Today 02:03

All times are GMT + 3 Hours



You cannot post new topics in this forum
You cannot reply to topics in this forum
You cannot edit your posts in this forum
You cannot delete your posts in this forum
You cannot vote in polls in this forum
You cannot attach files in this forum
You cannot download files in this forum