Today is a free download without charge Download

Благотворительный концерт Фонда Принца Уэльского 2010 / Prince's Trust Rock Gala 2010 [2010, Rock, HDTV 1080i]

Reply to topic
 
Author
Message

Omen ®

Longevity: 8 years 4 months

Posts: 181087

Торрент-статистика

Post 08-Jan-2013 17:00

[Quote]

Благотворительный концерт Фонда Принца Уэльского 2010 / Prince's Trust Rock Gala 2010
Жанр: Rock
Продолжительность: 01:23:56
Год выпуска: 2010
Описание: Благотворительный концерт Фонда Принца Уэльского с участием: Eric Clapton, Jamie Cullum, Jools Holland, Tom Jones, Mark King, Brian May, Paolo Mutini, Queen, Status Quo, Midge Ure и других звезд.
Качество: HDTV 1080i
Контейнер: M2TS
Видео кодек: H.264
Аудио кодек: AC3
Видео: H264; 1920x1080 (16:9); 25.000 fps; ~11,500 kbps
Аудио: AC-3; 48000 Hz; 192 kbps; 2 channels

Отчёт MediaInfo / BDInfo

W:\111-svadba\Благотворительный концерт Фонда Принца Уэльского_HD Life_1080i.m2ts General #0 ID : 0 (0x0) Complete name : W:\111-svadba\Благотворительный концерт Фонда Принца Уэльского_HD Life_1080i.m2ts Format : BDAV Format/Info : Blu-ray Video File size : 6.50 GiB Duration : 1h 23mn Overall bit rate mode : Variable Overall bit rate : 11.1 Mbps Maximum Overall bit rate : 24.0 Mbps Video #4113 ID : 4113 (0x1011) Menu ID : 1 (0x1) Format : AVC Format/Info : Advanced Video Codec Format profile : [email protected] Format settings, CABAC : No Format settings, ReFrames : 2 frames Format settings, GOP : M=3, N=15 Codec ID : 27 Duration : 1h 23mn Bit rate mode : Variable Bit rate : 10.5 Mbps Maximum bit rate : 20.0 Mbps Width : 1 920 pixels Height : 1 080 pixels Display aspect ratio : 16:9 Frame rate : 25.000 fps Standard : PAL Color space : YUV Chroma subsampling : 4:2:0 Bit depth : 8 bits Scan type : MBAFF Bits/(Pixel*Frame) : 0.202 Stream size : 6.13 GiB (94%) Color primaries : BT.709-5, BT.1361, IEC 61966-2-4, SMPTE RP177 Transfer characteristics : BT.709-5, BT.1361 Matrix coefficients : BT.709-5, BT.1361, IEC 61966-2-4 709, SMPTE RP177 Audio #4352 ID : 4352 (0x1100) Menu ID : 1 (0x1) Format : AC-3 Format/Info : Audio Coding 3 Mode extension : CM (complete main) Codec ID : 129 Duration : 1h 23mn Bit rate mode : Constant Bit rate : 192 Kbps Channel(s) : 2 channels Channel positions : Front: L R Sampling rate : 48.0 KHz Bit depth : 16 bits Compression mode : Lossy Stream size : 115 MiB (2%)

Скриншоты


Other forum [Profile] [PM]
Display posts from previous:    
Reply to topic

The time now is: Today 23:09

All times are GMT + 3 Hours



You cannot post new topics in this forum
You cannot reply to topics in this forum
You cannot edit your posts in this forum
You cannot delete your posts in this forum
You cannot vote in polls in this forum
You cannot attach files in this forum
You cannot download files in this forum