Today is a free download without charge Download

Marillion - Live from Cadogan Hall 09' [2011, Progressive Rock, BDRip 720p]

Reply to topic
 
Author
Message

Omen ®

Longevity: 8 years 4 months

Posts: 181087

Торрент-статистика

Post 08-Jan-2013 14:30

[Quote]

Marillion - Live from Cadogan Hall 09'

Жанр: Progressive Rock
Продолжительность: 02:07:00
Год выпуска: 2011
Источник: Blu Ray Dick
Контейнер: MKV
Видео кодек: H.264
Аудио кодек: DTS / AC3
Видео: AVC, 1280x720, ~7150 kbps, 25 fps
Аудио 1: DTS Core, 1510 kbps, 48 kHz, 24 bit, 5.1 CH
Аудио 2: AC3, 448 kbps, 48 kHz, 16 bit, 2.0 CH
Присутствует разбивка на главы по трэкам

Трэклист

01 - Go!
02 - Interior Lulu
03 - Out Of This World
04 - Wrapped Up In Time
05 - The Space
06 - Hard As Love
07 - Quartz
08 - If My Heart Were A Ball
09 - It's Not Your Fault
10 - Memory Of Water
11 - This Is The 21st Century
12 - No One Can
13 - Beautiful
14 - This Train Is My Life
15 - You're Gone
16 - 80 Days
17 - Gazpacho
18 - The Answering Machine
19 - Estonia
20 - Easter
21 - Three Minute Boy

MediaInfo

Общее
Уникальный идентификатор : 176169122298655979360429102043517388194 (0x8488F0549DBB7FF7BA6863803DBF85A2)
Полное имя : D:\Видео\Marillion\Marillion - Live from Cadogan Hall [2011, Progressive Rock, BDRip, 720p].mkv
Формат : Matroska
Версия формата : Version 2
Размер файла : 8,13 Гбайт
Продолжительность : 2 ч. 7 м.
Общий поток : 9104 Кбит/сек
Название фильма : Marillion Live From Cadogan Hall
Дата кодирования : UTC 2013-01-08 08:46:57
Программа кодирования : mkvmerge v5.8.0 ('No Sleep / Pillow') built on Sep 2 2012 15:37:04
Библиотека кодирования : XviD4PSP 6.0 / 53.6.0
Видео
Идентификатор : 1
Формат : AVC
Формат/Информация : Advanced Video Codec
Профиль формата : [email protected]
Параметр CABAC формата : Да
Параметр ReFrames формата : 8 кадров
Идентификатор кодека : V_MPEG4/ISO/AVC
Продолжительность : 2 ч. 7 м.
Битрейт : 7150 Кбит/сек
Ширина : 1280 пикселей
Высота : 720 пикселей
Соотношение сторон : 16:9
Режим частоты кадров : Переменный
Частота кадров : 25,000 кадров/сек
Цветовое пространство : YUV
Субдискретизация насыщенности : 4:2:0
Битовая глубина : 8 бит
Тип развёртки : Прогрессивная
Бит/(Пиксели*Кадры) : 0.310
Размер потока : 6,22 Гбайт (77%)
Заголовок : Marillion - Live from Cadogan Hall [2011, Progressive Rock, BDRip, 720p]
Библиотека кодирования : x264 core 116 r2019M 9cc407d
Настройки программы : cabac=1 / ref=9 / deblock=1:-1:-2 / analyse=0x3:0x133 / me=umh / subme=9 / psy=1 / psy_rd=1.00:0.20 / mixed_ref=1 / me_range=16 / chroma_me=1 / trellis=2 / 8x8dct=1 / cqm=0 / deadzone=21,11 / fast_pskip=1 / chroma_qp_offset=-3 / threads=6 / sliced_threads=0 / nr=0 / decimate=1 / interlaced=0 / bluray_compat=0 / constrained_intra=0 / bframes=9 / b_pyramid=1 / b_adapt=1 / b_bias=0 / direct=3 / weightb=1 / open_gop=0 / weightp=1 / keyint=250 / keyint_min=25 / scenecut=40 / intra_refresh=0 / rc_lookahead=40 / rc=2pass / mbtree=1 / bitrate=7150 / ratetol=1.0 / qcomp=0.60 / qpmin=0 / qpmax=69 / qpstep=4 / cplxblur=20.0 / qblur=0.5 / ip_ratio=1.40 / aq=1:1.00
Язык : English
Default : Да
Forced : Нет
Аудио #1
Идентификатор : 2
Формат : AC-3
Формат/Информация : Audio Coding 3
Расширение режима : CM (complete main)
Параметр Endianness формата : Big
Идентификатор кодека : A_AC3
Продолжительность : 2 ч. 7 м.
Вид битрейта : Постоянный
Битрейт : 448 Кбит/сек
Каналы : 2 канала
Расположение каналов : Front: L R
Частота : 48,0 КГц
Битовая глубина : 16 бит
Метод сжатия : С потерями
Размер потока : 410 Мбайт (5%)
Заголовок : AC3 [2.0 CH]
Язык : English
Default : Нет
Forced : Нет
Аудио #2
Идентификатор : 3
Формат : DTS
Формат/Информация : Digital Theater Systems
Идентификатор кодека : A_DTS
Продолжительность : 2 ч. 7 м.
Вид битрейта : Постоянный
Битрейт : 1510 Кбит/сек
Каналы : 6 каналов
Расположение каналов : Front: L C R, Side: L R, LFE
Частота : 48,0 КГц
Битовая глубина : 24 бит
Метод сжатия : С потерями
Размер потока : 1,35 Гбайт (17%)
Заголовок : DTS Core [5.1 CH]
Язык : English
Default : Да
Forced : Нет
Меню
00:00:00.000 : en:Chapter 00
00:07:02.520 : en:Chapter 01
00:18:30.360 : en:Chapter 02
00:24:24.280 : en:Chapter 03
00:29:28.280 : en:Chapter 04
00:35:52.880 : en:Chapter 05
00:41:27.040 : en:Chapter 06
00:49:04.880 : en:Chapter 07
00:55:03.520 : en:Chapter 08
01:00:18.000 : en:Chapter 09
01:03:31.040 : en:Chapter 10
01:09:54.000 : en:Chapter 11
01:14:40.040 : en:Chapter 12
01:19:28.400 : en:Chapter 13
01:24:08.560 : en:Chapter 14
01:28:27.160 : en:Chapter 15
01:33:29.760 : en:Chapter 16
01:39:33.880 : en:Chapter 17
01:44:38.360 : en:Chapter 18
01:53:53.640 : en:Chapter 19
01:58:52.200 : en:Chapter 20

Скриншоты


Other forum [Profile] [PM]
Display posts from previous:    
Reply to topic

The time now is: Today 06:43

All times are GMT + 3 Hours



You cannot post new topics in this forum
You cannot reply to topics in this forum
You cannot edit your posts in this forum
You cannot delete your posts in this forum
You cannot vote in polls in this forum
You cannot attach files in this forum
You cannot download files in this forum