Today is a free download without charge Download

Пираты! Банда неудачников / The Pirates! Band of Misfits (Питер Лорд / Peter Lord, Джефф Ньюитт / Jeff Newitt) [2012, мультфильм, комедия, приключения, семейный, BDRemux 1080p] Dub (Rus, Ukr) + AVO (Карповский) + ENG + Subs

Reply to topic
 
Author
Message

Omen ®

Longevity: 8 years

Posts: 181087

Торрент-статистика

Post 08-Jan-2013 08:39

[Quote]

Пираты! Банда неудачников / The Pirates! Band of Misfits- Страна: Великобритания, США
Жанр: мультфильм, комедия, приключения, семейный
Продолжительность: 01:28:05
Год выпуска: 2012
Перевод #1: Профессиональный (дублированный) | BD CEE
Перевод #2: Авторский (одноголосый закадровый) | Антон Карповский
Русские субтитры: есть-Режиссёр: Питер Лорд / Peter Lord, Джефф Ньюитт / Jeff Newitt
Роли озвучивали: Хью Грант, Мартин Фриман, Имелда Стонтон, Дэвид Теннант, Джереми Пивен, Сальма Хайек, Ленни Генри, Брайан Блессид, Антон Ельчин, Брендан Глисон- | Релиз: -Описание: Экранизация первой книги из серии романов писателя Гидеона Дефо, рассказывающих о банде незадачливых пиратов. В первой части пираты прибывают в Лондон, где знакомятся с молодым Чарльзом Дарвином и говорящим шимпанзе по имени Мистер Бобо, а также столкнутся с врагами, которые хотят их уничтожить.-Качество: BDRemux 1080p (Исходник: The Pirates! Band of Misfits 1080p Blu-ray AVC CEE DTS-HD MA 5.1)
Формат: MKV
Видео: MPEG-4 AVC Video / 24652 kbps / 1920x1080p / 23,976 fps / 16:9 / High Profile 4.1
Аудио #1: Русский / Dolby Digital Audio / 5.1 / 48 kHz / 640 kbps - Дубляж | BD CEE
Аудио #2: Русский / DTS Audio / 5.1 / 48 kHz / 1510 kbps - Одноголосый закадровый | Антон Карповский
Аудио #3: Українська / Dolby Digital Audio / 5.1 / 48 kHz / 640 kbps - Дубляж | BD CEE
Аудио #4: English / DTS-HD Master Audio / 5.1 / 48 kHz / 2247 kbps / 16-bit (DTS Core: 5.1 / 48 kHz / 1509 kbps / 16-bit) - Original
Субтитры: Русские [Full], Русские [Forced], English [Full]-

Перевод Карповского появился благодаря

1. _48ronin_
2. Dr. Destructo
3. SavineX
4. Alexbeer
5. Kampfer161
6. pestel
7. dunhill200
8. arvideo
9. Guyver
10. feldeger
11. zetrob
12. Wolf_Larsen
13. ZeDOK
14. therox
15. shitman82
16. Linnan
17. LEMKE

Подробные технические данные

GeneralUnique ID : 189740896277509034171148888221181407608 (0x8EBEC4731E666952A9BC954CE4CDF178)Complete name : H:\The.Pirates.Band.Of.Misfits.2012.BDRemux.1080p.rutracker.mkvFormat : MatroskaFormat version : Version 2File size : 18.3 GiBDuration : 1h 28mnOverall bit rate mode : VariableOverall bit rate : 29.7 MbpsMovie name : The Pirates! Band of Misfits (2012) 1080p BDRemuxEncoded date : UTC 2012-12-09 08:49:03Writing application : mkvmerge v5.8.0 ('No Sleep / Pillow') built on Sep 2 2012 15:37:04Writing library : libebml v1.2.3 + libmatroska v1.3.0
VideoID : 1Format : AVCFormat/Info : Advanced Video CodecFormat profile : [email protected] settings, CABAC : YesFormat settings, ReFrames : 2 framesFormat settings, GOP : M=1, N=10Muxing mode : Container [email protected] ID : V_MPEG4/ISO/AVCDuration : 1h 28mnBit rate mode : VariableBit rate : 24.8 MbpsWidth : 1 920 pixelsHeight : 1 080 pixelsDisplay aspect ratio : 16:9Frame rate : 23.976 fpsColor space : YUVChroma subsampling : 4:2:0Bit depth : 8 bitsScan type : ProgressiveBits/(Pixel*Frame) : 0.498Stream size : 15.2 GiB (83%)Title : BDRemux 1080p / MиLLIyTKa / rutracker.orgLanguage : EnglishDefault : YesForced : No
Audio #1ID : 2Format : AC-3Format/Info : Audio Coding 3Mode extension : CM (complete main)Format settings, Endianness : BigCodec ID : A_AC3Duration : 1h 28mnBit rate mode : ConstantBit rate : 640 KbpsChannel(s) : 6 channelsChannel positions : Front: L C R, Side: L R, LFESampling rate : 48.0 KHzBit depth : 16 bitsCompression mode : LossyStream size : 403 MiB (2%)Title : Дубляж | Blu-ray 1080p CEELanguage : RussianDefault : YesForced : No
Audio #2ID : 3Format : DTSFormat/Info : Digital Theater SystemsCodec ID : A_DTSDuration : 1h 28mnBit rate mode : ConstantBit rate : 1 510 KbpsChannel(s) : 6 channelsChannel positions : Front: L C R, Side: L R, LFESampling rate : 48.0 KHzBit depth : 24 bitsCompression mode : LossyStream size : 951 MiB (5%)Title : Одноголосый закадровый [Антон Карповский]Language : RussianDefault : NoForced : No
Audio #3ID : 4Format : AC-3Format/Info : Audio Coding 3Mode extension : CM (complete main)Format settings, Endianness : BigCodec ID : A_AC3Duration : 1h 28mnBit rate mode : ConstantBit rate : 640 KbpsChannel(s) : 6 channelsChannel positions : Front: L C R, Side: L R, LFESampling rate : 48.0 KHzBit depth : 16 bitsCompression mode : LossyStream size : 403 MiB (2%)Title : Дубляж | Blu-ray 1080p CEELanguage : UkrainianDefault : NoForced : No
Audio #4ID : 5Format : DTSFormat/Info : Digital Theater SystemsFormat profile : MA / CoreCodec ID : A_DTSDuration : 1h 28mnBit rate mode : VariableBit rate : 1 561 Kbps / 1 510 KbpsChannel(s) : 6 channelsChannel positions : Front: L C R, Side: L R, LFESampling rate : 48.0 KHzBit depth : 16 bitsCompression mode : Lossless / LossyTitle : OriginalLanguage : EnglishDefault : NoForced : No
Text #1ID : 6Format : UTF-8Codec ID : S_TEXT/UTF8Codec ID/Info : UTF-8 Plain TextTitle : FullLanguage : RussianDefault : NoForced : No
Text #2ID : 7Format : UTF-8Codec ID : S_TEXT/UTF8Codec ID/Info : UTF-8 Plain TextTitle : ForcedLanguage : RussianDefault : YesForced : No
Text #3ID : 8Format : UTF-8Codec ID : S_TEXT/UTF8Codec ID/Info : UTF-8 Plain TextTitle : FullLanguage : EnglishDefault : NoForced : No
Menu00:00:00.000 : en:00:00:00.00000:08:36.683 : en:00:08:36.68300:15:11.661 : en:00:15:11.66100:20:30.438 : en:00:20:30.43800:27:04.706 : en:00:27:04.70600:33:06.985 : en:00:33:06.98500:37:23.491 : en:00:37:23.49100:42:03.438 : en:00:42:03.43800:47:26.010 : en:00:47:26.01000:51:54.194 : en:00:51:54.19400:56:39.521 : en:00:56:39.52101:01:08.206 : en:01:01:08.20601:07:10.485 : en:01:07:10.48501:11:52.183 : en:01:11:52.18301:16:21.285 : en:01:16:21.28501:19:15.668 : en:01:19:15.668

Скриншоты

Внимание! Торрент был перезалит 09.12.2012 в 13:25 по МСК
Other forum [Profile] [PM]
Display posts from previous:    
Reply to topic

The time now is: Today 22:02

All times are GMT + 3 Hours



You cannot post new topics in this forum
You cannot reply to topics in this forum
You cannot edit your posts in this forum
You cannot delete your posts in this forum
You cannot vote in polls in this forum
You cannot attach files in this forum
You cannot download files in this forum