Today is a free download without charge Download

Кукарача (Армен Адилханян) [2011 г., мультфильм, комедия, DVDRip]

Reply to topic
 
Author
Message

Vildanoff ®

Gender:

Longevity: 11 years

Posts: 81

Location: г. Уфа

Торрент-статистика

Post 21-Apr-2011 17:50

[Quote]

Кукарача Год выпуска: 2011
Страна: Россия / Продюсерский центр «Парадиз»
Жанр: мультфильм, комедия
Продолжительность: 01:11:09
Перевод: Не требуется
Режиссер: Армен Адилханян
В ролях: Велимир Русаков, Владимир Епифанцев, Антон Масленников, Юрий Стоянов, Александр Гордон, Александр Носков, Василиса Воронина, Юрий Меншагин, Марина Бакина, Виктор Бакин
Описание: Они жили в большом доме в центре города, в процессоре компьютера… Прикольная компания таракашек и мышонок Хвост. Вели умные разговоры о жизни, играли в футбол, устраивали гонки на игрушечных машинках и все время думали: что бы такое съесть да как бы отбиться от жуков-носорогов и не попасть на обед обжоры-кота и хищников-голубей. А однажды еще и любовь нагрянула, нежданно негаданно! Проблем прибавилось. Как добиться взаимности в любви, находясь на низшей ступени пищевой пирамиды?!
Качество: DVDRip
Формат: AVI
Видео кодек: XviD
Аудио кодек: AC3
Видео: 2357 kb/s, 720x304
Аудио: AC3, 384 kb/s (6 ch)SAMPLE

MI

D:\Видео\Кино\Kukaracha.2011.O.DVDRip.avi
General
Complete name : D:\Видео\Кино\Kukaracha.2011.O.DVDRip.avi
Format : AVI
Format/Info : Audio Video Interleave
File size : 1.37 GiB
Duration : 1h 11mn
Overall bit rate : 2 751 Kbps
Writing application : VirtualDubMod 1.5.4.1 (build 2178/release)
Writing library : VirtualDubMod build 2178/release
Video #0
ID : 0
Format : MPEG-4 Visual
Format profile : Advanced [email protected]
Format settings, BVOP : 2
Format settings, QPel : No
Format settings, GMC : No warppoints
Format settings, Matrix : Custom
Codec ID : XVID
Codec ID/Hint : XviD
Duration : 1h 11mn
Bit rate : 2 357 Kbps
Width : 720 pixels
Height : 304 pixels
Display aspect ratio : 2.35:1
Frame rate : 25.000 fps
Color space : YUV
Chroma subsampling : 4:2:0
Bit depth : 8 bits
Scan type : Progressive
Compression mode : Lossy
Bits/(Pixel*Frame) : 0.431
Stream size : 1.17 GiB (86%)
Writing library : XviD 58
Audio #1
ID : 1
Format : AC-3
Format/Info : Audio Coding 3
Mode extension : CM (complete main)
Codec ID : 2000
Duration : 1h 11mn
Bit rate mode : Constant
Bit rate : 384 Kbps
Channel(s) : 6 channels
Channel positions : Front: L C R, Side: L R, LFE
Sampling rate : 48.0 KHz
Bit depth : 16 bits
Compression mode : Lossy
Stream size : 195 MiB (14%)
Alignment : Split accross interleaves
Interleave, duration : 40 ms (1.00 video frame)
Interleave, preload duration : 500 ms
   

_________________


Last edited by Vildanoff on 2011-09-02 10:48; edited 1 time in total
Other forum [Profile] [PM]

Nugeiro

Gender:

Longevity: 10 years

Posts: 1981

Location: Украина, Шостка

Торрент-статистика

Post 21-Apr-2011 19:01 (after 1 hour 11 minutes)

[Quote]

Виль, как мульт? Курю

_________________
Other forum [Profile] [PM]

Vildanoff ®

Gender:

Longevity: 11 years

Posts: 81

Location: г. Уфа

Торрент-статистика

Post 21-Apr-2011 19:20 (after 18 minutes)

[Quote]

Nugeiro
УГ)) Mr. Green

_________________
Other forum [Profile] [PM]

Nugeiro

Gender:

Longevity: 10 years

Posts: 1981

Location: Украина, Шостка

Торрент-статистика

Post 21-Apr-2011 19:38 (after 17 minutes)

[Quote]

Very Happy Понятно...

_________________
Other forum [Profile] [PM]
Display posts from previous:    
Reply to topic

The time now is: Today 22:22

All times are GMT + 3 Hours



You cannot post new topics in this forum
You cannot reply to topics in this forum
You cannot edit your posts in this forum
You cannot delete your posts in this forum
You cannot vote in polls in this forum
You cannot attach files in this forum
You cannot download files in this forum