Today is a free download without charge Download

Заложница 2 / Taken 2 (Оливье Мегатон / Olivier Megaton) [ 2012 , Франция , боевик, триллер, криминал , BDRip 1080p ]

Reply to topic
 
Author
Message

Delia ®

Gender:

Longevity: 11 years

Posts: 1821

Торрент-статистика

Post 07-Jan-2013 23:46

[Quote]

Заложница 2Taken 2«First they took his daughter. Now they're coming for him.»-- Год выпуска: 2012
Страна: Франция
Жанр: боевик, триллер, криминал
Продолжительность: 01:32:07
Перевод: Профессиональный дублированный
Режиссер: Оливье Мегатон / Olivier Megaton
Сценарий: Люк Бессон / Luc Besson, Роберт Марк Кэмен / Robert Mark Kamen
Продюсер: Люк Бессон / Luc Besson, Дилой Гюлюн / Diloy Gülün, Мишель Мандавилль / Michael Mandaville
Оператор: Ромейн Лакурбас / Romain Lacourbas
Композитор: Натэниел Мекали / Nathaniel Mechaly В ролях: Лиам Нисон (Bryan Mills), Мэгги Грэйс (Kim), Фамке Янссен (Lenore), Лиленд Орсер (Sam), Джон Грайз (Casey), Д.Б. Суини (Bernie), Люк Граймс (Jamie), Раде Шербеджия (Murad Krasniqi), Кеворк Маликян (Inspector Durmaz), Ален Фиглаж (Suko), Фрэнк Альварез (Car Wash Attendant), Мурат Тунселли (Custom Officer Albania)
Описание: Брайану Миллсу придется расхлебывать последствия своих действий. Спасая свою дочь, он убил главаря банды, у которого - сюрприз! - есть отец по имени Мурад. Мурад жаждет отмщения и описывается как человек, отдающий приказы, но сам никогда никому не подчиняющийся. Мурад берет в заложники Миллса с супругой, и тут уже Ким Миллс нужно будет спасать своих родителей.-
MPAA: - Детям до 13 лет просмотр не желателен--
Качество: BDRip
Контейнер: MKV
Видео: AVC, 1920x800 (2.40:1), 11536 kbps, 23,976 fps, 0,313 bpp
Аудио №1: русский /; AC3 /; 5.1 /; 48 kHz /; 448 kbps /; 16 bit
Аудио №2: английский /; AC3 /; 5.1 /; 48 kHz /; 320 kbps /; 16 bit
Субтитры №1: русские
Субтитры №2: английские
Навигация по главам: есть--

Media Info

Общее
Уникальный идентификатор : 189840193305815136654817883929388094744 (0x8ED1E42BD121593DB8C67B7BD4259518)
Полное имя : E:TorrentTaken 2 (2012)BDRip-F.HD .mkv
Формат : Matroska
Версия формата : Version 4 / Version 2
Размер файла : 7,92 Гбайт
Продолжительность : 1 ч. 32 м.
Общий поток : 12,3 Мбит/сек
Дата кодирования : UTC 2013-02-07 16:04:39
Программа кодирования : mkvmerge v6.0.0 ('Coming Up For Air') built on Jan 20 2013 09:52:00
Библиотека кодирования : libebml v1.3.0 + libmatroska v1.4.0
Видео
Идентификатор : 1
Формат : AVC
Формат/Информация : Advanced Video Codec
Профиль формата : [email protected]
Параметр CABAC формата : Да
Параметр ReFrames формата : 4 кадра
Идентификатор кодека : V_MPEG4/ISO/AVC
Продолжительность : 1 ч. 32 м.
Битрейт : 11,5 Мбит/сек
Ширина : 1920 пикселей
Высота : 800 пикселей
Соотношение сторон : 2,40:1
Режим частоты кадров : Постоянный
Частота кадров : 23,976 кадра/сек
Цветовое пространство : YUV
Субдискретизация насыщенности : 4:2:0
Битовая глубина : 8 бит
Тип развёртки : Прогрессивная
Бит/(Пиксели*Кадры) : 0.313
Размер потока : 7,27 Гбайт (92%)
Библиотека кодирования : x264 core 129 r2230kMod 1cffe9f
Настройки программы : cabac=1 / ref=4 / deblock=1:-2:-2 / analyse=0x3:0x133 / me=umh / subme=10 / psy=1 / fade_compensate=0.00 / psy_rd=1.00:0.10 / mixed_ref=1 / me_range=48 / chroma_me=1 / trellis=2 / 8x8dct=1 / cqm=0 / deadzone=21,11 / fast_pskip=0 / chroma_qp_offset=-3 / threads=6 / lookahead_threads=1 / sliced_threads=0 / nr=0 / decimate=0 / interlaced=0 / bluray_compat=0 / constrained_intra=0 / bframes=9 / b_pyramid=2 / b_adapt=2 / b_bias=0 / direct=3 / weightb=1 / open_gop=0 / weightp=2 / keyint=240 / keyint_min=23 / scenecut=40 / intra_refresh=0 / rc_lookahead=100 / rc=2pass / mbtree=0 / bitrate=11536 / ratetol=1.0 / qcomp=0.70 / qpmin=0 / qpmax=69 / qpstep=4 / cplxblur=20.0 / qblur=0.5 / vbv_maxrate=60000 / vbv_bufsize=55000 / nal_hrd=none / ip_ratio=1.35 / pb_ratio=1.25 / aq=2:0.80
Язык : English
Default : Да
Forced : Нет
Основные цвета : BT.709
Характеристики трансфера : BT.709
Коэффициенты матрицы : BT.709
Аудио #1
Идентификатор : 2
Формат : AC-3
Формат/Информация : Audio Coding 3
Расширение режима : CM (complete main)
Параметр Endianness формата : Big
Идентификатор кодека : A_AC3
Продолжительность : 1 ч. 32 м.
Вид битрейта : Постоянный
Битрейт : 448 Кбит/сек
Каналы : 6 каналов
Расположение каналов : Front: L C R, Side: L R, LFE
Частота : 48,0 КГц
Битовая глубина : 16 бит
Метод сжатия : С потерями
Размер потока : 295 Мбайт (4%)
Язык : Russian
Default : Да
Forced : Нет
Аудио #2
Идентификатор : 3
Формат : AC-3
Формат/Информация : Audio Coding 3
Расширение режима : CM (complete main)
Параметр Endianness формата : Big
Идентификатор кодека : A_AC3
Продолжительность : 1 ч. 32 м.
Вид битрейта : Постоянный
Битрейт : 320 Кбит/сек
Каналы : 6 каналов
Расположение каналов : Front: L C R, Side: L R, LFE
Частота : 48,0 КГц
Битовая глубина : 16 бит
Метод сжатия : С потерями
Размер потока : 211 Мбайт (3%)
Язык : English
Default : Нет
Forced : Нет
Текст #1
Идентификатор : 4
Формат : UTF-8
Идентификатор кодека : S_TEXT/UTF8
Идентификатор кодека/Информация : UTF-8 Plain Text
Язык : Russian
Default : Нет
Forced : Нет
Текст #2
Идентификатор : 5
Формат : UTF-8
Идентификатор кодека : S_TEXT/UTF8
Идентификатор кодека/Информация : UTF-8 Plain Text
Язык : English
Default : Нет
Forced : Нет
Меню
00:00:00.000 : en:Chapter 00
00:04:18.424 : en:Chapter 01
00:07:24.694 : en:Chapter 02
00:08:51.280 : en:Chapter 03
00:12:45.389 : en:Chapter 04
00:16:01.669 : en:Chapter 05
00:19:41.179 : en:Chapter 06
00:22:06.283 : en:Chapter 07
00:25:10.926 : en:Chapter 08
00:30:22.946 : en:Chapter 09
00:34:48.169 : en:Chapter 10
00:38:06.992 : en:Chapter 11
00:41:31.322 : en:Chapter 12
00:45:37.985 : en:Chapter 13
00:50:35.991 : en:Chapter 14
00:56:38.853 : en:Chapter 15
01:00:21.617 : en:Chapter 16
01:04:41.252 : en:Chapter 17
01:07:06.939 : en:Chapter 18
01:10:28.265 : en:Chapter 19
01:15:44.831 : en:Chapter 20
01:19:28.471 : en:Chapter 21
01:23:06.648 : en:Chapter 22
01:26:02.824 : en:Chapter 23

Знаете ли Вы, что...

  • Диего Бонета и Завьер Сэмюэл проходили прослушивание на роль, которая отошла Люку Граймсу.
  • Когда Ким использует первую гранату, Брайан насчитывает около 4-х секунд и говорит, что это было на расстоянии в 4,5 км. Скорость звука составляет около 0,34 км/с, так что взрыв был на расстоянии чуть более 1 км. Чтобы пройти путь в 4,5 км звуку понадобилось бы около 13 секунд.
  • Когда Брайан поручает Ким рисовать круги на карте, числа, которые он произносит, являются радиусами, а не диаметрами. Если бы она нарисовала окружности, так как он описал, то они были бы гораздо меньше по диаметру, чем было задумано.
  • Когда Брайан и Ким плывут на пароме, рука Брайана то лежит у нее на плечах, то резко возвращается в исходное положение.
  • Во время сцены автомобильной погони, заднее окно такси простреливают. В нескольких кадрах после этого окно то целое, то снова разбито.
  • Несмотря на то, что такси врезается в машины, стены и т. д., оно остается в практически идеальном состоянии на протяжении всей сцены погони.
  • Посольство США в Турции находится в Анкаре. В Стамбуле есть только консульство США.
  • Безопасность консульства США в Стамбуле обеспечивается местной охраной, а не американской армией. Помимо этого всегда есть барьеры или железобетонные конструкции, которые не позволят врезаться в пропускной пункт так, как это показано в фильме.
  • В фильме Стамбул изображается очень неразвитым городом, тогда как в реальной жизни он считается одним из самых больших и самых важных городов Европы. Кроме того, почти все женские персонажи носят паранджу, когда на самом деле это личный выбор каждого, и почти все женщины в Стамбуле не носят ее.


Скриншоты

     
     

_________________
Человек – это канат, натянутый между животным и сверхчеловеком, – канат над пропастью.
В человеке ценно то, что он мост, а не цель. Фридрих Ницше
Other forum [Profile] [PM]
Display posts from previous:    
Reply to topic

The time now is: Today 12:05

All times are GMT + 3 Hours



You cannot post new topics in this forum
You cannot reply to topics in this forum
You cannot edit your posts in this forum
You cannot delete your posts in this forum
You cannot vote in polls in this forum
You cannot attach files in this forum
You cannot download files in this forum