Today is a free download without charge Download

Штрафбат (1-11 серии из 11)Николай Досталь (боевик, драма, военный 2004) [H.264] DVDRip

Reply to topic
 
Author
Message

Витек1 ®

Gender:

Longevity: 8 years 9 months

Posts: 451

Location: Житомир

Торрент-статистика

Post 07-Jan-2013 19:20

[Quote]

Штрафбат (1-11 серии из 11) (2004) [H.264] DVDRip- Русское название: Штрафбат
Год выпуска: 2004
Страна: Россия / Кинокомпания "МакДос" при участии Киностудии "Эталон-фильм"
Жанр: боевик, драма, военный
Премьера: 20 сентября 2004
Режиссер: Николай Досталь
Актеры: Алексей Серебряков, Юрий Степанов, Александр Баширов, Роман Мадянов, Алексей Жарков, Илья Коврижных, Андрей Смоляков, Виктор Супрун, Максим Литовченко, Владимир Топцов, Павел Деревянко, Алексей Пушкин, Николай Мачульский, Юрий Шибанов, Владимир Капустин (II), Михаил Еремеев, Вячеслав Ганенко, Александр Никифоров, Андрей Мерзликин, Ольга Калашникова, Василий Мищенко, Василий Дахненко, Михаил Крылов, Полина Кутепова, Сергей Цепов...

Описание фильма:
1942-1943 годы. О штрафниках военные историки говорить не любят, их братские могилы безымянны.
Штрафбаты бросали в атаки на самые неприступные участки обороны немцев. Штрафбаты было вовсе не обязательно снабжать боеприпасами и провиантом, часто еду и оружие они добывали сами, в бою. Смерть окружала их со всех сторон: спереди их косили пулеметы противника, сзади - пулеметы заградотрядов НКВД. Фильм рассказывает о трагических судьбах штрафников, жизнями которых добивались победы в самый тяжелый период Великой Отечественной войны......
-Продолжительность: серия: ~ 00:47:46
Качество видео: DVDRip-AVC
Формат: MKV
Видеокодек: MPEG-4 AVC
Битрейт видео: ~1130 kbps avg, 25,000 fps, 0.204 bit/pixel
Размер кадра: 704x480**762x480 (1.587)
Аудиокодек: AC3
Аудио: 48.0 kHz, AC3, 2 ch ~192 Kbps avg
Субтитры: отсутствуют

MediaInfo:

Format : Matroska
Format version : Version 2
File size : 695 MiB
Duration : 50mn 43s
Overall bit rate : 1 916 Kbps
Encoded date : UTC 2011-02-25 05:47:49
Writing application : mkvmerge v3.3.0 ('Language') built on Mar 24 2010 14:59:24
Writing library : libebml v0.8.0 + libmatroska v0.9.0
Video
ID : 1
Format : AVC
Format/Info : Advanced Video Codec
Format profile : [url=mailto:[email protected]][email protected][/url]
Format settings, CABAC : Yes
Format settings, ReFrames : 8 frames
Codec ID : V_MPEG4/ISO/AVC
Duration : 50mn 43s
Bit rate : 1 722 Kbps
Width : 704 pixels
Height : 480 pixels
Display aspect ratio : 1.587
Frame rate mode : Constant
Frame rate : 25.000 fps
Standard : NTSC
Color space : YUV
Chroma subsampling : 4:2:0
Bit depth : 8 bits
Scan type : Progressive
Bits/(Pixel*Frame) : 0.204
Stream size : 611 MiB (88%)
Writing library : x264 core 92 r1510 33d382a
Encoding settings : cabac=1 / ref=8 / deblock=1:-1:0 / analyse=0x3:0x133 / me=umh / subme=9 / psy=1 / psy_rd=0.60:0.10 / mixed_ref=1 / me_range=16 / chroma_me=1 / trellis=2 / 8x8dct=1 / cqm=0 / deadzone=21,11 / fast_pskip=0 / chroma_qp_offset=-3 / threads=3 / sliced_threads=0 / nr=0 / decimate=0 / interlaced=0 / constrained_intra=0 / bframes=6 / b_pyramid=2 / b_adapt=2 / b_bias=0 / direct=3 / wpredb=1 / wpredp=2 / keyint=250 / keyint_min=25 / scenecut=40 / intra_refresh=0 / rc_lookahead=0 / rc=2pass / mbtree=0 / bitrate=1722 / ratetol=1.0 / qcomp=0.60 / qpmin=10 / qpmax=51 / qpstep=4 / cplxblur=20.0 / qblur=0.5 / vbv_maxrate=16500 / vbv_bufsize=16500 / ip_ratio=1.40 / pb_ratio=1.30 / aq=1:1.00 / nal_hrd=none
Language : Russian
Default : Yes
Forced : No
Audio
ID : 2
Format : AC-3
Format/Info : Audio Coding 3
Mode extension : CM (complete main)
Format settings, Endianness : Big
Codec ID : A_AC3
Duration : 50mn 43s
Bit rate mode : Constant
Bit rate : 192 Kbps
Channel(s) : 2 channels
Channel positions : Front: L R
Sampling rate : 48.0 KHz
Bit depth : 16 bits
Compression mode : Lossy
Stream size : 69.6 MiB (10%)
Language : Russian
Default : Yes
Forced : No
Скриншоты:
         
         

_________________
Скачал сам, дай скачать другому!!!Не забудь сказать -
Other forum [Profile] [PM]
Display posts from previous:    
Reply to topic

The time now is: Today 13:16

All times are GMT + 3 Hours



You cannot post new topics in this forum
You cannot reply to topics in this forum
You cannot edit your posts in this forum
You cannot delete your posts in this forum
You cannot vote in polls in this forum
You cannot attach files in this forum
You cannot download files in this forum