Today is a free download without charge Download

Небесный суд (4 серии из 4) (Алена Званцова) (драма, 2011) [H.264] DVDRip

Reply to topic
 
Author
Message

Витек1 ®

Gender:

Longevity: 8 years 9 months

Posts: 451

Location: Житомир

Торрент-статистика

Post 07-Jan-2013 18:45

[Quote]

Небесный суд (4 серии из 4) (2011) [H.264] DVDRip- Оригинальное название: Небесный суд
Год выпуска: 2011
Страна: Россия / DT Production, Central Partnership
Жанр: драма
Премьера (РФ): 31 мая 2012 (Россия,прокат), 2 октября 2011 (Украина, канал СТБ, телеверсия)
Режиссер: Алена Званцова
Актеры: Константин Хабенский, Михаил Пореченков, Даниэла Стоянович, Ингеборга Дапкунайте, Анна Михалкова, Никита Зверев, Дмитрий Марьянов, Игорь Гаспарян, Юрий Ицков, Юрий Орлов (II), Яна Сексте, Олег Мазуров, Артур Ваха, Виталий Коваленко, Ксения Каталымова, Евгения Добровольская, Эра Зиганшина, Сергей Мучеников, Сергей Барковский, Борис Хвошнянский, Леонид Алимов, Константин Воробьёв, Сергей Бызгу, Андрей Шимко, Сергей Козик

Описание фильма:
Адвокатская драма с неожиданным ракурсом прочтения. Адвокаты Андрей и Вениамин – друзья, которых объединяет многое, но работа то и дело ставит их на разные стороны баррикад. Особенность их положения в том, что судебные процессы, в которых они участвуют, происходят не в земной жизни, а в загробной. Они – участники Небесного Суда, решающего, куда направить душу человека после смерти, в Рай или в Ад. В одно из дел неожиданно вмешиваются личные интересы Андрея: на скамью подсудимых попадает человек, сделавший предложение его вдове...-Продолжительность: серия: ~ 00:48
Качество видео: DVDRip-AVC
Формат: MKV
Видеокодек: MPEG-4 AVC
Битрейт видео: ~ 2372 kbps avg, 25,000 fps, 0.229 bit/pixel
Размер кадра: 720x576 (16:9)
Аудиокодек: AC3
Аудио: 48.0 kHz, AC3, 6 ch ~448 Kbps avg
Субтитры: отсутствуют

MediaInfo:

Format : Matroska
Format version : Version 2
File size : 997 MiB
Duration : 48mn 25s
Overall bit rate : 2 878 Kbps
Encoded date : UTC 2012-08-26 19:09:44
Writing application : mkvmerge v5.7.0 ('The Whirlwind') built on Jul 8 2012 20:08:51
Writing library : libebml v1.2.3 + libmatroska v1.3.0
Video
ID : 1
Format : AVC
Format/Info : Advanced Video Codec
Format profile : [url=mailto:[email protected]][email protected][/url]
Format settings, CABAC : Yes
Format settings, ReFrames : 11 frames
Codec ID : V_MPEG4/ISO/AVC
Duration : 48mn 25s
Bit rate : 2372 Kbps
Width : 720 pixels
Height : 576 pixels
Display aspect ratio : 16:9
Frame rate mode : Constant
Frame rate : 25.000 fps
Standard : PAL
Color space : YUV
Chroma subsampling : 4:2:0
Bit depth : 8 bits
Scan type : Progressive
Bits/(Pixel*Frame) : 0.229
Stream size : 822 MiB (82%)
Writing library : x264 core 125 r2208 d9d2288
Encoding settings : cabac=1 / ref=11 / deblock=1:-3:-3 / analyse=0x3:0x133 / me=umh / subme=10 / psy=1 / psy_rd=1.00:0.10 / mixed_ref=1 / me_range=24 / chroma_me=1 / trellis=2 / 8x8dct=1 / cqm=0 / deadzone=21,11 / fast_pskip=1 / chroma_qp_offset=-3 / threads=3 / lookahead_threads=1 / sliced_threads=0 / nr=0 / decimate=1 / interlaced=0 / bluray_compat=0 / constrained_intra=0 / bframes=8 / b_pyramid=2 / b_adapt=2 / b_bias=0 / direct=3 / weightb=1 / open_gop=0 / weightp=2 / keyint=250 / keyint_min=25 / scenecut=40 / intra_refresh=0 / rc_lookahead=60 / rc=crf / mbtree=0 / crf=18.0 / qcomp=0.60 / qpmin=0 / qpmax=69 / qpstep=4 / vbv_maxrate=7500 / vbv_bufsize=7500 / crf_max=0.0 / nal_hrd=none / ip_ratio=1.40 / pb_ratio=1.30 / aq=1:1.00
Language : Russian
Default : Yes
Forced : No
Color primaries : BT.601 PAL
Transfer characteristics : BT.470 System B, BT.470 System G
Matrix coefficients : BT.601
Audio
ID : 2
Format : AC-3
Format/Info : Audio Coding 3
Mode extension : CM (complete main)
Format settings, Endianness : Big
Codec ID : A_AC3
Duration : 48mn 25s
Bit rate mode : Constant
Bit rate : 448 Kbps
Channel(s) : 6 channels
Channel positions : Front: L C R, Side: L R, LFE
Sampling rate : 48.0 KHz
Bit depth : 16 bits
Compression mode : Lossy
Delay relative to video : 215ms
Stream size : 155 MiB (16%)
Title : AC3 5.1 448 kbps
Language : Russian
Default : Yes
Forced : No
Menu
00:00:00.000 : ru:Вступление
00:00:06.720 : ru:Сцена 1
00:08:52.120 : ru:Сцена 2
00:24:31.400 : ru:Сцена 3
00:39:37.360 : ru:Сцена 4
Скриншоты:
         
         

_________________
Скачал сам, дай скачать другому!!!Не забудь сказать -
Other forum [Profile] [PM]
Display posts from previous:    
Reply to topic

The time now is: Today 15:22

All times are GMT + 3 Hours



You cannot post new topics in this forum
You cannot reply to topics in this forum
You cannot edit your posts in this forum
You cannot delete your posts in this forum
You cannot vote in polls in this forum
You cannot attach files in this forum
You cannot download files in this forum