Today is a free download without charge Download

В финале Джон умрёт / John Dies at the End (Дон Коскарелли / Don Coscarelli) [2012, США, ужасы, фэнтези, комедия, WEB-DLRip 1080p] VO (acolith) + original (eng) + sub (rus, eng)

Reply to topic
 
Author
Message

Omen ®

Longevity: 8 years 5 months

Posts: 181087

Торрент-статистика

Post 06-Jan-2013 19:48

[Quote]

В финале Джон умрёт / John Dies at the End
Год выпуска: 2012
Страна: США
Жанр: ужасы, фэнтези, комедия
Продолжительность: 01:39:32
Перевод: одноголосый (закадровый)(acolith)
Субтитры: русские, английские
Оригинальная аудиодорожка: английский
Режиссер: Дон Коскарелли / Don Coscarelli
В ролях: Чейз Уильямсон, Роб Майес, Пол Джаматти, Клэнси Браун, Глинн Тёрмен, Даг Джонс, Дэниэл Робак, Фаббианн Терез, Джонни Уэстон, Джимми Вонг
Описание: Новый препарат, наркотик, наводнил улицы, его действие — просто сумашествие, но есть один страшный побочный эффект — после употребления не все возвращаются в реальный мир людьми… Два друга, Джон и Дэвид, оказываются ввязаны в историю с адским препаратом и вынуждены противостоять надвигающемуся ужасу так спешащему выбраться в наш мир через эту дрянь.

Качество: WEB-DLRip 1080p(WEBiOS)
Формат: MKV
Видео кодек: H.264
Аудио кодек: AC3
Видео: 1912 x 1072; 23.976 fps; 4 966 Kbps
Аудио1: Русский, AC3 2.0 192 Kbps 48,0 КГц
Аудио2: English, AC3 5.1 384 Kbps 48,0 КГц
Субтитры: softsub (SRT)

Mediainfo

D:\HDFILMS\John.Dies.In.The.End.2012.1080p.WEB-DL.Rus.Eng.mkv
General
Unique ID : 181255007275355909096744144771507823446 (0x885C71D1D75C637DB2B9DC519DD02356)
Complete name : D:\HDFILMS\John.Dies.In.The.End.2012.1080p.WEB-DL.Rus.Eng.mkv
Format : Matroska
Format version : Version 2
File size : 3.93 GiB
Duration : 1h 39mn
Overall bit rate : 5 655 Kbps
Encoded date : UTC 2013-01-06 14:53:22
Writing application : mkvmerge v5.3.0 ('I could have danced') built on Feb 9 2012 10:38:07
Writing library : libebml v1.2.3 + libmatroska v1.3.0
Video #1
ID : 1
Format : AVC
Format/Info : Advanced Video Codec
Format profile : [email protected]
Format settings, CABAC : Yes
Format settings, ReFrames : 4 frames
Codec ID : V_MPEG4/ISO/AVC
Duration : 1h 39mn
Bit rate : 4 966 Kbps
Width : 1 912 pixels
Height : 1 072 pixels
Display aspect ratio : 16:9
Frame rate : 23.976 fps
Color space : YUV
Chroma subsampling : 4:2:0
Bit depth : 8 bits
Scan type : Progressive
Bits/(Pixel*Frame) : 0.101
Stream size : 3.45 GiB (88%)
Title : John.Dies.In.The.End.2012.1080p.WEB-DL.H264-WEBiOS
Default : No
Forced : No
Color primaries : BT.709-5, BT.1361, IEC 61966-2-4, SMPTE RP177
Transfer characteristics : BT.709-5, BT.1361
Matrix coefficients : BT.709-5, BT.1361, IEC 61966-2-4 709, SMPTE RP177
Audio #2
ID : 2
Format : AC-3
Format/Info : Audio Coding 3
Mode extension : CM (complete main)
Codec ID : A_AC3
Duration : 1h 39mn
Bit rate mode : Constant
Bit rate : 192 Kbps
Channel(s) : 2 channels
Channel positions : Front: L R
Sampling rate : 48.0 KHz
Bit depth : 16 bits
Compression mode : Lossy
Stream size : 137 MiB (3%)
Title : acolith AC3 2.0 192 kbps
Language : Russian
Default : No
Forced : No
Audio #3
ID : 3
Format : AC-3
Format/Info : Audio Coding 3
Mode extension : CM (complete main)
Codec ID : A_AC3
Duration : 1h 39mn
Bit rate mode : Constant
Bit rate : 384 Kbps
Channel(s) : 6 channels
Channel positions : Front: L C R, Side: L R, LFE
Sampling rate : 48.0 KHz
Bit depth : 16 bits
Compression mode : Lossy
Stream size : 273 MiB (7%)
Title : Original AC3 5.1 384 kbps
Language : English
Default : No
Forced : No
Text #4
ID : 4
Format : UTF-8
Codec ID : S_TEXT/UTF8
Codec ID/Info : UTF-8 Plain Text
Language : Russian
Default : No
Forced : No
Text #5
ID : 5
Format : UTF-8
Codec ID : S_TEXT/UTF8
Codec ID/Info : UTF-8 Plain Text
Language : English
Default : No
Forced : No

Скриншоты

Other forum [Profile] [PM]
Display posts from previous:    
Reply to topic

The time now is: Today 10:12

All times are GMT + 3 Hours



You cannot post new topics in this forum
You cannot reply to topics in this forum
You cannot edit your posts in this forum
You cannot delete your posts in this forum
You cannot vote in polls in this forum
You cannot attach files in this forum
You cannot download files in this forum