Today is a free download without charge Download

На крючке! ( Наталья Углицких , 2011г., мелодрама, комедия ) BDRip 720p

Reply to topic
 
Author
Message

Delia ®

Gender:

Longevity: 11 years

Posts: 1821

Торрент-статистика

Post 21-Apr-2011 10:33

[Quote]

На крючке! Год выпуска:2011
Страна: Рoссия
Жанр: мелодрама, комедия
Продолжительность:01:30:03
Перевод: не требуется
Режиссер:Наталья Углицких
Продюссер: Сергей Козлов, Игорь Толстунов
Сценарий: Виталий Москаленко, Анна Пармас
Бюджет: $3 000 000
Премьера в мире:3 февраля 2011
В ролях:Екатерина Вилкова, Константин Крюков, Марат Башаров, Валерий Николаев, Светлана Антонова, Игорь Угольников, Андрей Руденский, Алексей Макаров, Анна Уколова, Максим Матвеев, Борис Зверев, Татьяна Паршина, Егор Рыбаков, Лера Горин, Игорь Евтушенко, Ноэль Андерсон, Анна Бегунова.
Описание: Тренер детской школы по фигурному катанию Рита обижена неверным возлюбленным. Тот оставил ее, чтобы жениться на сестре некоего Власова, занимающего 13-е место в списке самых богатых людей страны.
Дабы отомстить несостоявшемуся жениху, Рита решает влюбить в себя этого самого Власова. Есть только одна «небольшая» проблема: никто не знает, как выглядит загадочный Власов; известно только, что он увлекается дайвингом, и проводит время инкогнито в Таиланде.
В поисках Власова Рите помогает журналист Костя, — вместе с ним она и отправляется на далекий остров Тао…
Качество:BDRip 720p( Blu-Ray 1080p )
Формат: MKV
Видео кодек: H.264
Аудио кодек: AC3
Видео:English, 6311 Кбит/сек, 1280*688 (1,860), в 23,976 кадр/сек, AVC ([email protected])
Аудио: Russian, 640 Кбит/сек, 48,0 КГц, 16 бит, 6 канала(ов), AC-3

MediaInfo:

Общее
Уникальный идентификатор : 211820489936563823626307899607033499295 (0x9F5B2476F8B14C3F814A0373499ECE9F)
Полное имя : E:\торрент\Na krjuchke (2011) BDRip 720p.mkv
Формат : Matroska
Размер файла : 4,37 Гбайт
Продолжительность : 1 ч. 30 м.
Общий поток : 6948 Кбит/сек
Дата кодирования : UTC 2011-04-21 06:14:17
Программа кодирования : mkvmerge v4.6.0 ('Still Crazy After All These Years') built on Mar 10 2011 02:50:32
Библиотека кодирования : libebml v1.2.0 + libmatroska v1.1.0
Видео
Идентификатор : 1
Формат : AVC
Формат/Информация : Advanced Video Codec
Профиль формата : [email protected]
Параметр CABAC формата : Да
Параметр ReFrames формата : 8 кадры
Идентификатор кодека : V_MPEG4/ISO/AVC
Продолжительность : 1 ч. 30 м.
Битрейт : 6311 Кбит/сек
Ширина : 1280 пикс.
Высота : 688 пикс.
Соотношение сторон : 1,860
Частота кадров : 23,976 кадр/сек
Цветовое пространство : YUV
Подвыборка цветности : 4:2:0
Битовая глубина : 8 бит
Тип развёртки : Прогрессивная
Бит/(Пиксели*Кадры) : 0.299
Размер потока : 3,88 Гбайт (89%)
Библиотека кодирования : x264 core 114 r1924 08d04a4
Настройки программы : cabac=1 / ref=8 / deblock=1:-2:-2 / analyse=0x3:0x133 / me=umh / subme=7 / psy=1 / psy_rd=1.00:0.15 / mixed_ref=1 / me_range=32 / chroma_me=1 / trellis=2 / 8x8dct=1 / cqm=0 / deadzone=21,11 / fast_pskip=0 / chroma_qp_offset=-3 / threads=6 / sliced_threads=0 / nr=0 / decimate=1 / interlaced=0 / constrained_intra=0 / bframes=5 / b_pyramid=2 / b_adapt=1 / b_bias=0 / direct=1 / weightb=1 / open_gop=0 / weightp=2 / keyint=250 / keyint_min=24 / scenecut=40 / intra_refresh=0 / rc_lookahead=50 / rc=2pass / mbtree=1 / bitrate=6311 / ratetol=1.0 / qcomp=0.80 / qpmin=5 / qpmax=51 / qpstep=4 / cplxblur=20.0 / qblur=0.5 / ip_ratio=1.40 / aq=1:1.00
Язык : English
Аудио
Идентификатор : 2
Формат : AC-3
Формат/Информация : Audio Coding 3
Расширение режима : CM (complete main)
Идентификатор кодека : A_AC3
Продолжительность : 1 ч. 30 м.
Вид битрейта : Постоянный
Битрейт : 640 Кбит/сек
Канал(ы) : 6 канала(ов)
Расположение каналов : Front: L C R, Side: L R, LFE
Частота : 48,0 КГц
Битовая глубина : 16 бит
Метод сжатия : С потерями
Размер потока : 412 Мбайт (9%)
Язык : Russian
Меню
00:00:00.000 : en:00:00:00.000
00:03:57.654 : en:00:03:57.654
00:08:36.516 : en:00:08:36.516
00:15:13.287 : en:00:15:13.287
00:20:11.252 : en:00:20:11.252
00:27:55.215 : en:00:27:55.215
00:37:44.095 : en:00:37:44.095
00:42:23.666 : en:00:42:23.666
00:48:26.946 : en:00:48:26.946
00:56:13.120 : en:00:56:13.120
00:59:41.953 : en:00:59:41.953
01:04:10.180 : en:01:04:10.180
01:10:16.879 : en:01:10:16.879
01:15:48.878 : en:01:15:48.878
01:20:20.816 : en:01:20:20.816
01:23:45.437 : en:01:23:45.437

Скриншоты

       

_________________
Человек – это канат, натянутый между животным и сверхчеловеком, – канат над пропастью.
В человеке ценно то, что он мост, а не цель. Фридрих Ницше


Last edited by Delia on 2011-08-26 18:49; edited 1 time in total
Other forum [Profile] [PM]
Display posts from previous:    
Reply to topic

The time now is: Today 22:32

All times are GMT + 3 Hours



You cannot post new topics in this forum
You cannot reply to topics in this forum
You cannot edit your posts in this forum
You cannot delete your posts in this forum
You cannot vote in polls in this forum
You cannot attach files in this forum
You cannot download files in this forum