Today is a free download without charge Download

Рок над Волгой 2011 [2011, Rock, HDTV 1080i]

Reply to topic
 
Author
Message

Omen ®

Longevity: 8 years 3 months

Posts: 181087

Торрент-статистика

Post 06-Jan-2013 12:00

[Quote]

Рок над Волгой 2011
Жанр: Rock
Продолжительность: 01:46:59
Год выпуска: 2011
Описание: Рок над Волгой - крупнейший в России фестиваль под открытым небом постоянно побивающий собственный рекорд посещаемости.
Треклист:
СКОРО (Требуется помощь)
Доп. информация: Релиз -

Рип чистый. Без посторонних надписей. Выкладывается как есть.
Качество: HDTV 1080i
Контейнер: TS
Видео кодек: H.264
Аудио кодек: MP2
Видео: 1920x1080 (16:9) 25.000 fps 7 858 Kbps, 0.152 bit/pixel
Аудио: MPEG Audio 48000Hz stereo 192 Кбит/сек

Отчёт MediaInfo

GeneralID : 1 (0x1)Complete name : J:\ВЫКЛАДКА\HDTV\Музыка\Рок над Волгой (2011, Rock, HDTV) (MYDIMKA).tsFormat : MPEG-TSFile size : 5.96 GiBDuration : 1h 46mnOverall bit rate mode : VariableOverall bit rate : 7 970 Kbps
VideoID : 2311 (0x907)Menu ID : 1 (0x1)Format : AVCFormat/Info : Advanced Video CodecFormat profile : [email protected] settings, CABAC : YesFormat settings, ReFrames : 2 framesCodec ID : 27Duration : 1h 46mnBit rate mode : VariableBit rate : 7 382 KbpsMaximum bit rate : 7 500 KbpsWidth : 1 920 pixelsHeight : 1 080 pixelsDisplay aspect ratio : 16:9Frame rate : 25.000 fpsColor space : YUVChroma subsampling : 4:2:0Bit depth : 8 bitsScan type : MBAFFBits/(Pixel*Frame) : 0.142Stream size : 5.52 GiB (93%)Color primaries : BT.709Transfer characteristics : BT.709Matrix coefficients : BT.709
AudioID : 2312 (0x908)Menu ID : 1 (0x1)Format : MPEG AudioFormat version : Version 1Format profile : Layer 2Codec ID : 3Duration : 1h 46mnBit rate mode : ConstantBit rate : 192 KbpsChannel(s) : 2 channelsSampling rate : 48.0 KHzCompression mode : LossyStream size : 147 MiB (2%)Language : Russian

Скриншоты


Скринлист

Other forum [Profile] [PM]
Display posts from previous:    
Reply to topic

The time now is: Today 22:08

All times are GMT + 3 Hours



You cannot post new topics in this forum
You cannot reply to topics in this forum
You cannot edit your posts in this forum
You cannot delete your posts in this forum
You cannot vote in polls in this forum
You cannot attach files in this forum
You cannot download files in this forum