Today is a free download without charge Download

Гудзонский ястреб / Hudson Hawk (Майкл Леманн / Michael Lehmann) [ 1991 , США , боевик, комедия, приключения , BDRip 1080р ]

Reply to topic
 
Author
Message

Delia ®

Gender:

Longevity: 10 years

Posts: 1821

Торрент-статистика

Post 06-Jan-2013 10:22

[Quote]

Гудзонский ястребHudson Hawk«Watch your step. Hold your breath. Hang on for dear life. And catch...the hawk.»-- Год выпуска: 1991
Страна: США
Жанр: боевик, комедия, приключения
Продолжительность: 01:39:53
Перевод: Профессиональный (полное дублирование)
Режиссер: Майкл Леманн / Michael Lehmann В ролях: Брюс Уиллис (Eddie 'Hudson Hawk' Hawkins), Дэнни Айелло (Tommy Five-Tone), Энди МакДауэлл (Anna Baragli), Джеймс Коберн (George Kaplan), Ричард Э. Грант (Darwin Mayflower), Сандра Бернхард (Minerva Mayflower), Дональд Бертон (Alfred), Дон Харви (Snickers), Дэвид Карузо (Kit Kat), Эндрю Бринярски (Butterfinger), Лоррейн Туссен (Almond Joy), Бертт Харрис (Gates)-Описание: «Гудзонский Ястреб» - прозвище непревзойденного вора Эдди, который может открыть любой сейф за считанные секунды. Выйдя из тюрьмы, король кражи решает уйти на заслуженный отдых. Но слишком многие на свободе заинтересованы в его криминальном таланте.
С помощью шантажа коварные злоумышленники заставляют Эдди совершить ограбление века: он должен похитить три шедевра Леонардо Да Винчи из самых охраняемых музеев мира всего за несколько дней! «Гудзонский Ястреб» снова отправляется на охоту, но на этот раз в бескрайнем небе он не одинок...


MPAA: - Лицам до 17 лет обязательно присутствие взрослого

Качество: BDRip1080p (исходник Remux )
Контейнер: MKV
Видео: AVC, 1920x1040 (16:9), 10500 kbps, 23,976 fps, 0,219 bpp
Аудио №1: русский /; AC3 /; 2.0 /; 48 kHz /; 448 kbps /; 16 bit; |дублированный (Видеосервис)|
Аудио №2: английский /; AC3 /; 2.0 /; 48 kHz /; 384 kbps /; 16 bit
Субтитры №1: русские
Субтитры №2: английские
Навигация по главам: есть

Media Info

General
Unique ID : 249285013159686527625923727433336993161 (0xBB8A8C123A17111D9705745699D9B589)
Complete name : E:TorrentHudson_hawk (1991)BDRip-F.HD.mkv
Format : Matroska
Format version : Version 4 / Version 2
File size : 7.91 GiB
Duration : 1h 39mn
Overall bit rate : 11.3 Mbps
Encoded date : UTC 2010-02-22 21:41:31
Writing application : mkvmerge v5.9.0 ('On The Loose') built on Dec 9 2012 15:37:01
Writing library : libebml v1.3.0 + libmatroska v1.4.0
Video
ID : 1
Format : AVC
Format/Info : Advanced Video Codec
Format profile : [email protected]
Format settings, CABAC : Yes
Format settings, ReFrames : 5 frames
Codec ID : V_MPEG4/ISO/AVC
Duration : 1h 39mn
Bit rate : 10.5 Mbps
Width : 1 920 pixels
Height : 1 040 pixels
Display aspect ratio : 16:9
Frame rate : 23.976 fps
Color space : YUV
Chroma subsampling : 4:2:0
Bit depth : 8 bits
Scan type : Progressive
Bits/(Pixel*Frame) : 0.219
Stream size : 7.17 GiB (91%)
Writing library : x264 core 129 r2230kMod 1cffe9f
Encoding settings : cabac=1 / ref=5 / deblock=1:-2:-2 / analyse=0x3:0x133 / me=umh / subme=10 / psy=1 / fade_compensate=0.00 / psy_rd=0.80:0.20 / mixed_ref=1 / me_range=48 / chroma_me=1 / trellis=2 / 8x8dct=1 / cqm=0 / deadzone=21,11 / fast_pskip=0 / chroma_qp_offset=-3 / threads=6 / lookahead_threads=1 / sliced_threads=0 / nr=0 / decimate=0 / interlaced=0 / bluray_compat=0 / constrained_intra=0 / bframes=8 / b_pyramid=2 / b_adapt=2 / b_bias=0 / direct=3 / weightb=1 / open_gop=0 / weightp=2 / keyint=240 / keyint_min=23 / scenecut=40 / intra_refresh=0 / rc_lookahead=120 / rc=2pass / mbtree=0 / bitrate=10500 / ratetol=1.0 / qcomp=0.70 / qpmin=0 / qpmax=69 / qpstep=4 / cplxblur=20.0 / qblur=0.5 / vbv_maxrate=60000 / vbv_bufsize=55000 / nal_hrd=none / ip_ratio=1.20 / pb_ratio=1.10 / aq=2:0.70
Language : English
Default : Yes
Forced : No
Color primaries : BT.709-5, BT.1361, IEC 61966-2-4, SMPTE RP177
Transfer characteristics : BT.709-5, BT.1361
Matrix coefficients : BT.709-5, BT.1361, IEC 61966-2-4 709, SMPTE RP177
Audio #1
ID : 2
Format : AC-3
Format/Info : Audio Coding 3
Mode extension : CM (complete main)
Codec ID : A_AC3
Duration : 1h 39mn
Bit rate mode : Constant
Bit rate : 448 Kbps
Channel(s) : 2 channels
Channel positions : Front: L R
Sampling rate : 48.0 KHz
Bit depth : 16 bits
Compression mode : Lossy
Stream size : 320 MiB (4%)
Title : DUB ( Видеосервис)
Language : Russian
Default : Yes
Forced : No
Audio #2
ID : 3
Format : AC-3
Format/Info : Audio Coding 3
Mode extension : CM (complete main)
Codec ID : A_AC3
Duration : 1h 39mn
Bit rate mode : Constant
Bit rate : 384 Kbps
Channel(s) : 2 channels
Channel positions : Front: L R
Sampling rate : 48.0 KHz
Bit depth : 16 bits
Compression mode : Lossy
Stream size : 274 MiB (3%)
Language : English
Default : No
Forced : No
Text #1
ID : 4
Format : UTF-8
Codec ID : S_TEXT/UTF8
Codec ID/Info : UTF-8 Plain Text
Language : Russian
Default : No
Forced : No
Text #2
ID : 5
Format : UTF-8
Codec ID : S_TEXT/UTF8
Codec ID/Info : UTF-8 Plain Text
Language : English
Default : No
Forced : No
Menu
00:00:00.000 : en:00:00:00.000
00:06:28.388 : en:00:06:28.388
00:12:51.060 : en:00:12:51.060
00:17:11.530 : en:00:17:11.530
00:24:48.320 : en:00:24:48.320
00:30:26.241 : en:00:30:26.241
00:37:08.935 : en:00:37:08.935
00:43:51.629 : en:00:43:51.629
00:49:04.315 : en:00:49:04.315
00:55:11.308 : en:00:55:11.308
01:04:16.477 : en:01:04:16.477
01:11:05.219 : en:01:11:05.219
01:17:40.656 : en:01:17:40.656
01:27:01.216 : en:01:27:01.216
01:34:03.262 : en:01:34:03.262


Скриншоты

       
       

_________________
Человек – это канат, натянутый между животным и сверхчеловеком, – канат над пропастью.
В человеке ценно то, что он мост, а не цель. Фридрих Ницше
Other forum [Profile] [PM]
Display posts from previous:    
Reply to topic

The time now is: Today 06:46

All times are GMT + 3 Hours



You cannot post new topics in this forum
You cannot reply to topics in this forum
You cannot edit your posts in this forum
You cannot delete your posts in this forum
You cannot vote in polls in this forum
You cannot attach files in this forum
You cannot download files in this forum