Today is a free download without charge Download

Автострада / Motorway / Che sau (Поу-Сои Чинг / Pou-Soi Cheang) [2012, Гонконг, боевик, драма, криминал, BDRip 720p] AVO [Сербин] + VO [den904] + Sub Rus + Original Cantonese

Reply to topic
 
Author
Message

Omen ®

Longevity: 8 years 5 months

Posts: 181087

Торрент-статистика

Post 06-Jan-2013 00:52

[Quote]

Автострада / Motorway / Che sau Страна: Гонконг
Студия: Media Asia Films
Жанр: боевик, драма, криминал
Год выпуска: 2012
Продолжительность: 01:29:10
Перевод 1: Авторский (одноголосый закадровый) Ю.Сербин
Перевод 2: Одноголосый (закадровый) den904
Cубтитры: русские,английские
Оригинальная аудиодорожка: Cantonese
Режиссер: Поу-Сои Чинг / Pou-Soi Cheang
В ролях: Энтони Вонг, Шон Юе, Го Сяодун, Барби Хсю, Джози Хо, Ка Танг Лам, Мишель Йе
Описание: Есть четыре персонажа — два копа и два преступника. Первый коп — молодой и борзый, он любит гонять по автостраде за нарушителями, поэтому на собственные деньги прокачивает свою патрульную машину. Второй — бывалый ветеран, три дня до пенсии. Он способен делать на дороге крутые штуки; знает, что молодой напарник еще не созрел для настоящего драйва, но предпочитает не лезть в бутылку без лишнего повода. Первый преступник — налетчик и стрелок, безжалостный убийца, профессиональный «гастролер». Он случайно попадает в гонконгский КПЗ, поэтому срочно вызывает с материка своего напарника. Напарник — опытный водила для гоп-стопов с 20-летним стажем — организует побег своего партнера. После кровавой бани, учиненной в стенах КПЗ, преступникам надо сделать последний большой гоп-стоп и сбежать из города, все выезды из которого перекрыты полицейскими патрулями.

Тип релиза: BDRip 720p[TayTO]
Контейнер: MKV
Видео: AVC,1280x690,6500 Kbps,24.000 fps
Аудио 1: Russian: 48 kHz, DTS, 3/2 (L,C,R,l,r) LFE ch, ~1536.00 kbps avg |Ю.Сербин|
Аудио 2: Russian: 48 kHz, AC3, 3/2 (L,C,R,l,r) + LFE ch, ~448.00 kbps avg |VO-den904|
Аудио 3: Cantonese: 48 kHz, AC3, 3/2 (L,C,R,l,r) + LFE ch, ~640.00 kbps avg |Original||
Чаптеры:есть

MediaInfo

General
Unique ID : 174182828133948788037249326173578042669 (0x830A64779C7A803BAFEAED1DAB479D2D)
Complete name : D:\Motorway 2012 720p BluRay DD5.1 x264-Talian-.mkv
Format : Matroska
Format version : Version 2
File size : 5.67 GiB
Duration : 1h 29mn
Overall bit rate : 9 097 Kbps
Movie name : -Talian-
Encoded date : UTC 2013-01-05 20:16:03
Writing application : mkvmerge v5.7.0 ('The Whirlwind') built on Jul 8 2012 20:08:51
Writing library : libebml v1.2.3 + libmatroska v1.3.0
Video
ID : 1
Format : AVC
Format/Info : Advanced Video Codec
Format profile : [email protected]
Format settings, CABAC : Yes
Format settings, ReFrames : 9 frames
Codec ID : V_MPEG4/ISO/AVC
Duration : 1h 29mn
Bit rate : 6 500 Kbps
Width : 1 280 pixels
Height : 690 pixels
Display aspect ratio : 1.855
Frame rate : 24.000 fps
Color space : YUV
Chroma subsampling : 4:2:0
Bit depth : 8 bits
Scan type : Progressive
Bits/(Pixel*Frame) : 0.307
Stream size : 3.94 GiB (69%)
Title : TayTO
Writing library : x264 core 125 r2200 999b753
Encoding settings : cabac=1 / ref=9 / deblock=1:-3:-3 / analyse=0x3:0x113 / me=esa / subme=10 / psy=1 / psy_rd=1.10:0.00 / mixed_ref=1 / me_range=16 / chroma_me=1 / trellis=2 / 8x8dct=1 / cqm=0 / deadzone=21,11 / fast_pskip=0 / chroma_qp_offset=-3 / threads=6 / lookahead_threads=1 / sliced_threads=0 / nr=0 / decimate=0 / interlaced=0 / bluray_compat=0 / constrained_intra=0 / bframes=7 / b_pyramid=2 / b_adapt=2 / b_bias=0 / direct=3 / weightb=1 / open_gop=0 / weightp=2 / keyint=240 / keyint_min=24 / scenecut=40 / intra_refresh=0 / rc_lookahead=192 / rc=2pass / mbtree=1 / bitrate=6500 / ratetol=1.0 / qcomp=0.55 / qpmin=0 / qpmax=69 / qpstep=4 / cplxblur=20.0 / qblur=0.5 / ip_ratio=1.40 / aq=1:0.80 / zones=1,610,b=0.5/980,1650,b=0.5/122984,128984,b=0.35
Language : English
Default : No
Forced : No
Audio #1
ID : 2
Format : DTS
Format/Info : Digital Theater Systems
Codec ID : A_DTS
Duration : 1h 29mn
Bit rate mode : Constant
Bit rate : 1 510 Kbps
Channel(s) : 6 channels
Channel positions : Front: L C R, Side: L R, LFE
Sampling rate : 48.0 KHz
Bit depth : 24 bits
Compression mode : Lossy
Stream size : 963 MiB (17%)
Title : AVO-Ю.Сербин
Language : Russian
Default : Yes
Forced : No
Audio #2
ID : 3
Format : AC-3
Format/Info : Audio Coding 3
Mode extension : CM (complete main)
Format settings, Endianness : Big
Codec ID : A_AC3
Duration : 1h 29mn
Bit rate mode : Constant
Bit rate : 448 Kbps
Channel(s) : 6 channels
Channel positions : Front: L C R, Side: L R, LFE
Sampling rate : 48.0 KHz
Bit depth : 16 bits
Compression mode : Lossy
Stream size : 286 MiB (5%)
Title : VO-den904
Language : Russian
Default : No
Forced : No
Audio #3
ID : 4
Format : AC-3
Format/Info : Audio Coding 3
Mode extension : CM (complete main)
Format settings, Endianness : Big
Codec ID : A_AC3
Duration : 1h 29mn
Bit rate mode : Constant
Bit rate : 640 Kbps
Channel(s) : 6 channels
Channel positions : Front: L C R, Side: L R, LFE
Sampling rate : 48.0 KHz
Bit depth : 16 bits
Compression mode : Lossy
Stream size : 408 MiB (7%)
Title : Cantonese AC3 [email protected]
Language : Chinese
Default : No
Forced : No
Text #1
ID : 5
Format : UTF-8
Codec ID : S_TEXT/UTF8
Codec ID/Info : UTF-8 Plain Text
Title : Sub
Language : Russian
Default : No
Forced : No
Text #2
ID : 6
Format : UTF-8
Codec ID : S_TEXT/UTF8
Codec ID/Info : UTF-8 Plain Text
Title : Sub
Language : English
Default : No
Forced : No
Menu
00:00:00.000 : en:00:00:00.000
00:03:27.500 : en:00:03:27.500
00:07:43.542 : en:00:07:43.542
00:11:43.500 : en:00:11:43.500
00:15:59.667 : en:00:15:59.667
00:20:38.083 : en:00:20:38.083
00:24:34.500 : en:00:24:34.500
00:27:42.500 : en:00:27:42.500
00:34:02.083 : en:00:34:02.083
00:39:55.708 : en:00:39:55.708
00:44:04.375 : en:00:44:04.375
00:47:28.750 : en:00:47:28.750
00:51:44.792 : en:00:51:44.792
00:58:13.042 : en:00:58:13.042
01:00:56.708 : en:01:00:56.708
01:04:16.875 : en:01:04:16.875
01:08:34.750 : en:01:08:34.750
01:12:51.083 : en:01:12:51.083
01:19:16.875 : en:01:19:16.875
01:23:25.708 : en:01:23:25.708
Source vs Encode vsHDChina


Other forum [Profile] [PM]
Display posts from previous:    
Reply to topic

The time now is: Today 11:17

All times are GMT + 3 Hours



You cannot post new topics in this forum
You cannot reply to topics in this forum
You cannot edit your posts in this forum
You cannot delete your posts in this forum
You cannot vote in polls in this forum
You cannot attach files in this forum
You cannot download files in this forum