Today is a free download without charge Download

Полет Феникса / Flight of the Phoenix (Джон Мур / John Moore) [2004 г., Приключения, BDRip 1080p]

Reply to topic
 
Author
Message

Delia ®

Gender:

Longevity: 10 years

Posts: 1821

Торрент-статистика

Post 04-Jan-2013 11:50

[Quote]

-Полет ФениксаFlight of the Phoenix«The only way out is up»-- Год выпуска: 2004
Страна: США
Жанр: боевик, триллер, драма, приключения
Продолжительность: 01:52:57
Перевод: Профессиональный дублированный
Режиссер: Джон Мур / John Moore В ролях: Деннис Куэйд (Frank Towns), Тайриз Гибсон (A.J.), Джованни Рибизи (Elliott), Миранда Отто (Kelly Johnson), Тони Карран (Alex Rodney), Стикки Фингаз (Jeremy), Джейкоб Варгас (Sammi), Хью Лори (Ian), Скотт Майкл Кэмпбелл (James Liddle), Кеворк Маликян (Rady), Джаред Падалеки (John Davis), Пол Дичфилд (Dr. Gerber)-Описание: Действие фильма разворачивается в монгольской пустыне, в самом сердце которой терпит крушение грузовой самолет, перевозящий нефтяных вахтовиков. Они возвращались с месторождения, которое перестало приносить прибыль и было закрыто. Решение компании выполнял командир команды самолета.
Таким образом, назад он вез озлобленных на него и компанию безработных нефтяников. После крушения, поняв, что помощи ждать неоткуда, команда решает самостоятельно построить самолет и долететь до Пекина, пока жажда, солнце и противоречия между ними не доконали их окончательно...


MPAA: - Детям до 13 лет просмотр не желателен--
Качество: BDRip
Контейнер: MKV
Видео: AVC, 1920x818 (2.35:1), 8910 kbps, 23,976 fps, 0,237 bpp
Аудио №1: русский /; AC3 /; 5.1 /; 48 kHz /; 384 kbps /; 16 bit; |дубляж|
Аудио №2: русский /; AC3 /; 5.1 /; 48 kHz /; 384 kbps /; 16 bit; |MVO|
Аудио №3: английский /; AC3 /; 5.1 /; 48 kHz /; 384 kbps /; 16 bit
Субтитры №1: русские
Субтитры №2: английские
Навигация по главам: есть--

Media Info

General
Unique ID : 248909803061737583016320329919799628840 (0xBB4248C8FC9593CCBC6B599E66361428)
Complete name : E:\Torrent\Polet.Feniksa.2004.BDRip-F.HD.mkv
Format : Matroska
Format version : Version 4 / Version 2
File size : 7.94 GiB
Duration : 1h 52mn
Overall bit rate : 10.1 Mbps
Encoded date : UTC 2010-02-22 21:41:31
Writing application : mkvmerge v5.9.0 ('On The Loose') built on Dec 9 2012 15:37:01
Writing library : libebml v1.3.0 + libmatroska v1.4.0
Video
ID : 1
Format : AVC
Format/Info : Advanced Video Codec
Format profile : [email protected]
Format settings, CABAC : Yes
Format settings, ReFrames : 4 frames
Codec ID : V_MPEG4/ISO/AVC
Duration : 1h 52mn
Bit rate : 8 910 Kbps
Width : 1 920 pixels
Height : 818 pixels
Display aspect ratio : 2.35:1
Frame rate : 23.976 fps
Color space : YUV
Chroma subsampling : 4:2:0
Bit depth : 8 bits
Scan type : Progressive
Bits/(Pixel*Frame) : 0.237
Stream size : 6.87 GiB (87%)
Writing library : x264 core 129 r2230+696+36 4446aa2 tMod+MixAQ [[email protected]:2:0 X86_64]
Encoding settings : cabac=1 / ref=4 / deblock=1:-3:-3 / analyse=0x3:0x133 / me=umh / subme=10 / psy=1 / fade_compensate=0.00 / psy_rd=0.80:0.07 / mixed_ref=1 / me_range=48 / chroma_me=1 / trellis=2 / 8x8dct=1 / cqm=0 / deadzone=21,11 / fast_pskip=0 / chroma_qp_offset=-3 / threads=6 / lookahead_threads=1 / sliced_threads=0 / nr=0 / decimate=0 / interlaced=0 / bluray_compat=0 / constrained_intra=0 / fgo=0 / bframes=9 / b_pyramid=2 / b_adapt=2 / b_bias=0 / direct=3 / weightb=1 / open_gop=0 / weightp=2 / keyint=240 / keyint_min=23 / scenecut=40 / intra_refresh=0 / rc=2pass / mbtree=0 / bitrate=8910 / ratetol=1.0 / qcomp=0.70 / qpmin=0 / qpmax=69 / qpstep=4 / cplxblur=20.0 / qblur=0.5 / ip_ratio=1.25 / pb_ratio=1.25 / aq=2 / aq-strength=0.80 / aq-sensitivity=10.00 / aq-ifactor=1.00 / aq-pfactor=1.00 / aq-bfactor=1.00 / aq2=0
Language : English
Default : Yes
Forced : No
Color primaries : BT.709-5, BT.1361, IEC 61966-2-4, SMPTE RP177
Transfer characteristics : BT.709-5, BT.1361
Matrix coefficients : BT.709-5, BT.1361, IEC 61966-2-4 709, SMPTE RP177
Audio #1
ID : 2
Format : AC-3
Format/Info : Audio Coding 3
Mode extension : CM (complete main)
Codec ID : A_AC3
Duration : 1h 52mn
Bit rate mode : Constant
Bit rate : 384 Kbps
Channel(s) : 6 channels
Channel positions : Front: L C R, Side: L R, LFE
Sampling rate : 48.0 KHz
Bit depth : 16 bits
Compression mode : Lossy
Stream size : 310 MiB (4%)
Title : дубляж
Language : Russian
Default : Yes
Forced : No
Audio #2
ID : 3
Format : AC-3
Format/Info : Audio Coding 3
Mode extension : CM (complete main)
Codec ID : A_AC3
Duration : 1h 52mn
Bit rate mode : Constant
Bit rate : 384 Kbps
Channel(s) : 6 channels
Channel positions : Front: L C R, Side: L R, LFE
Sampling rate : 48.0 KHz
Bit depth : 16 bits
Compression mode : Lossy
Stream size : 310 MiB (4%)
Title : MVO
Language : Russian
Default : No
Forced : No
Audio #3
ID : 4
Format : AC-3
Format/Info : Audio Coding 3
Mode extension : CM (complete main)
Codec ID : A_AC3
Duration : 1h 52mn
Bit rate mode : Constant
Bit rate : 384 Kbps
Channel(s) : 6 channels
Channel positions : Front: L C R, Side: L R, LFE
Sampling rate : 48.0 KHz
Bit depth : 16 bits
Compression mode : Lossy
Stream size : 310 MiB (4%)
Language : English
Default : No
Forced : No
Text #1
ID : 5
Format : UTF-8
Codec ID : S_TEXT/UTF8
Codec ID/Info : UTF-8 Plain Text
Language : Russian
Default : No
Forced : No
Text #2
ID : 6
Format : UTF-8
Codec ID : S_TEXT/UTF8
Codec ID/Info : UTF-8 Plain Text
Language : English
Default : No
Forced : No
Menu
00:00:00.000 : en:Cracking Up
00:05:00.000 : en:Cylon Logic
00:10:00.000 : en:Borrowed Time
00:15:00.000 : en:An Act of Faith
00:20:00.000 : en:Sandstorm
00:25:00.000 : en:Mayday!
00:30:00.000 : en:Survivors
00:35:00.000 : en:Last Rites
00:40:00.000 : en:Screwed
00:45:00.000 : en:Lost in the Night
00:50:00.000 : en:Bad Odds
00:55:00.000 : en:Elliott's Idea
01:00:00.000 : en:Looking for Liddle
01:05:00.000 : en:Something to Do
01:10:00.000 : en:No Compromises
01:15:00.000 : en:The Night Shift
01:20:00.000 : en:Fuel Shortage
01:25:00.000 : en:The Day Shift
01:30:00.000 : en:Wing Man
01:35:00.000 : en:Break Time
01:40:00.000 : en:The Electrical Storm
01:45:00.000 : en:The Phoenix
01:50:00.000 : en:Indispensable

Знаете ли Вы, что...

  • Помня о том, что на съёмках оригинальной картины во время запуска специально построенной для этого модели «Феникса» погиб один из каскадёров, в новой версии сцены с летящим самолётом снимали с радиоуправляемой моделью и компьютерной графикой.
  • Персонажа Миранды Отто в оригинале картины не было.


Скриншоты

     
     
     
 

_________________
Человек – это канат, натянутый между животным и сверхчеловеком, – канат над пропастью.
В человеке ценно то, что он мост, а не цель. Фридрих Ницше
Other forum [Profile] [PM]
Display posts from previous:    
Reply to topic

The time now is: Today 11:18

All times are GMT + 3 Hours



You cannot post new topics in this forum
You cannot reply to topics in this forum
You cannot edit your posts in this forum
You cannot delete your posts in this forum
You cannot vote in polls in this forum
You cannot attach files in this forum
You cannot download files in this forum