Today is a free download without charge Download

Серфер души / Soul Surfer (Шон МакНамара / Sean McNamara) [2011, США, драма, спорт, BDRip 720p] DVO + Original Eng

Reply to topic
 
Author
Message

Omen ®

Longevity: 8 years 5 months

Posts: 181087

Торрент-статистика

Post 03-Jan-2013 19:56

[Quote]

Серфер души / Soul Surfer-«When you come back from a loss, beat the odds, and never say never, you find a champion.»- Страна: США
Студия: Brookwell-McNamara Entertainment / Enticing Entertainment / Island Film Group / Life's a Beach Enter
Жанр: драма, спорт
Год выпуска: 2011
Продолжительность: 01:46:27-Перевод: Профессиональный (двухголосый закадровый) [студия Elrom]
Cубтитры: нет
Оригинальная аудиодорожка: английский-Режиссер: Шон МакНамара / Sean McNamara
В ролях: Анна-София Робб (AnnaSophia Robb), Хелен Хант (Helen Hunt), Деннис Куэйд (Dennis Quaid), Лоррэйн Николсон (Lorraine Nicholson), Кевин Сорбо (Kevin Sorbo), Кэрри Андервуд (Carrie Underwood), Росс Томас (Ross Thomas), Крис Брошу (Chris Brochu)-Описание: Спортивный байопик о жизни серфингистки Бетани Хэмилтон. С детства Бетани увлекалась серфингом, но в 13 лет у северного побережья Кауай на нее напала акула; в результате атаки девушка осталась без левой руки и чуть было не погибла. Но сила воли и настоящий характер сыграли свое дело — Бэттани, несмотря ни на что, вновь встала на доску и начала принимать участие в соревнованиях на правах полностью здорового серфера.- -Тип релиза: BDRip 720p
Контейнер: MKV-Видео: AVC; 1280x534; 2,35:1; 23,976 fps; 5229 kbps
Аудио 1: Russian (AC3, 2 ch, 192 kbps, 48,0 КГц)
Аудио 2: English (DTS, 6 ch, 1510 kbps, 48,0 КГц)

MediaInfo

Общее
Уникальный идентификатор : 215946517044228735963855539459784547687 (0xA275C94EA329F5048366B71676559D67)
Полное имя : F:Serfer dushi.2011.P2.BDRip.720p.Rus.Eng.mkv
Формат : Matroska
Размер файла : 5,15 Гбайт
Продолжительность : 1 ч. 46 м.
Общий поток : 6931 Кбит/сек
Дата кодирования : UTC 2012-12-16 19:45:15
Программа кодирования : mkvmerge v3.0.0 ('Hang up your Hang-Ups') built on Dec 12 2009 15:20:35
Библиотека кодирования : libebml v0.7.9 + libmatroska v0.8.1
Видео
Идентификатор : 1
Формат : AVC
Формат/Информация : Advanced Video Codec
Профиль формата : [email protected]
Параметр CABAC формата : Да
Параметр ReFrames формата : 12 кадров
Параметры GOP формата : M=4, N=40
Идентификатор кодека : V_MPEG4/ISO/AVC
Продолжительность : 1 ч. 46 м.
Битрейт : 5229 Кбит/сек
Ширина : 1280 пикс.
Высота : 534 пикс.
Соотношение сторон : 2,35:1
Частота кадров : 23,976 кадр/сек
Цветовое пространство : YUV
Подвыборка цветности : 4:2:0
Битовая глубина : 8 бит
Тип развёртки : Прогрессивная
Бит/(Пиксели*Кадры) : 0.319
Размер потока : 3,79 Гбайт (73%)
Заголовок : ***
Библиотека кодирования : x264 core 115 r2008+578 3864dbe
Настройки программы : cabac=1 / ref=12 / deblock=1:-3:-3 / analyse=0x3:0x113 / me=umh / subme=10 / psy=1 / fade_compensate=0.00 / psy_rd=1.05:0.10 / mixed_ref=1 / me_range=32 / chroma_me=1 / trellis=2 / 8x8dct=1 / cqm=1 / deadzone=21,11 / fast_pskip=0 / chroma_qp_offset=-2 / threads=6 / sliced_threads=0 / nr=0 / decimate=1 / interlaced=0 / bluray_compat=0 / constrained_intra=0 / fgo=0 / bframes=6 / b_pyramid=2 / b_adapt=2 / b_bias=0 / direct=3 / weightb=1 / open_gop=0 / weightp=2 / keyint=250 / keyint_min=23 / scenecut=40 / intra_refresh=0 / rc_lookahead=40 / rc=2pass / mbtree=1 / bitrate=5229 / ratetol=1.0 / qcomp=0.70 / qpmin=3 / qpmax=69 / qpstep=4 / cplxblur=20.0 / qblur=0.5 / vbv_maxrate=40000 / vbv_bufsize=30000 / nal_hrd=none / ip_ratio=1.40 / aq=2:1.00
Язык : English
Аудио #1
Идентификатор : 2
Формат : AC-3
Формат/Информация : Audio Coding 3
Расширение режима : CM (complete main)
Идентификатор кодека : A_AC3
Продолжительность : 1 ч. 46 м.
Вид битрейта : Постоянный
Битрейт : 192 Кбит/сек
Каналы : 2 канала
Расположение каналов : Front: L R
Частота : 48,0 КГц
Битовая глубина : 16 бит
Метод сжатия : С потерями
Размер потока : 146 Мбайт (3%)
Язык : Russian
Аудио #2
Идентификатор : 3
Формат : DTS
Формат/Информация : Digital Theater Systems
Идентификатор кодека : A_DTS
Продолжительность : 1 ч. 46 м.
Вид битрейта : Постоянный
Битрейт : 1510 Кбит/сек
Каналы : 6 каналов
Расположение каналов : Front: L C R, Side: L R, LFE
Частота : 48,0 КГц
Битовая глубина : 24 бит
Метод сжатия : С потерями
Задержка видео : 22 мс.
Размер потока : 1,12 Гбайт (22%)
Язык : English

Скриншоты

Other forum [Profile] [PM]
Display posts from previous:    
Reply to topic

The time now is: Today 01:34

All times are GMT + 3 Hours



You cannot post new topics in this forum
You cannot reply to topics in this forum
You cannot edit your posts in this forum
You cannot delete your posts in this forum
You cannot vote in polls in this forum
You cannot attach files in this forum
You cannot download files in this forum