Today is a free download without charge Download

Слишком молода, чтобы умереть? / Умереть молодой / Too Young to Die? (Роберт Марковиц / Robert Markowitz) [1990, США, драма, криминал, BDRip 1080p] DVO (CP-Digital) + Original + sub

Reply to topic
 
Author
Message

Omen ®

Longevity: 8 years 5 months

Posts: 181087

Торрент-статистика

Post 03-Jan-2013 19:48

[Quote]

Слишком молода, чтобы умереть? / Умереть молодой / Too Young to Die?- Год выпуска: 1990
Страна: США
Жанр: драма, криминал
Продолжительность: 01:31:50
Перевод: Профессиональный (двухголосый, закадровый) CP-Digital
Оригинальная звуковая дорожка: English
Cубтитры: Russian-Режиссер: Роберт Марковиц / Robert Markowitz
В ролях: Майкл Такер, Джульетт Льюис, Брэд Питт, Алан Фьюдж, Эмили Лонгстрет, Лори О’Брайэн, Yvette Heyden, Том Эверетт, Майкл О’Киф, Дин Эбстон
Описание: В поисках американской мечты Аманда Брэдли приезжает в южный городок, где оказывается в руках проходимца Билли. Он устраивает Аманду на работу танцовщицей в ночное заведение. И началось: секс, наркотики, проституция.
Сержант Майк, разглядевший за толстым слоем грима и экстравагантной внешностью хрупкую душу молодой женщины, пытается вытащить ее со дна. Но этот роман никак не входит в планы Билли. Во время «пьяной» разборки Майк оказывается смертельно ранен.
Отпечатки пальцев на ноже принадлежат Аманде. Суд настаивает на вынесении смертного приговора. Но она так молода, чтобы умереть…-Релиз: by Neofilm
Формат: MKV
Видео: 1920x1080 at 23,976 fps, MPEG-4 AVC Video, crf 17,8, ~17500 kbps avg
Аудио #1: Russian: 48 kHz/24-bit, DTS 2.0, ~1536.00 kbps avg |Двухголосый закадровый, CP Digital|
Аудио #2: Russian: 48 kHz, AC3, 3/2 (L,C,R,l,r) + LFE ch, ~ 448.00 kbps avg |Двухголосый закадровый, CP Digital|
Аудио #3: English: 48 kHz/24-bit, DTS 2.0, ~1536.00 kbps avg
Аудио #4: English: 48 kHz, AC3, 3/2 (L,C,R,l,r) + LFE ch, ~448.00 kbps avg
Семпл
-

MInfo


Формат : Matroska
Версия формата : Version 4 / Version 2
Размер файла : 14,0 Гбайт
Продолжительность : 1 ч. 31 м.
Общий поток : 21,8 Мбит/сек
Название фильма : Too Young to Die? (1990)-Release for HDCLUB
Дата кодирования : UTC 2010-02-22 21:41:31
Программа кодирования : mkvmerge v5.9.0 ('On The Loose') built on Dec 9 2012 15:37:01
Библиотека кодирования : libebml v1.3.0 + libmatroska v1.4.0
Видео
Идентификатор : 1
Формат : AVC
Формат/Информация : Advanced Video Codec
Профиль формата : [email protected]
Параметр CABAC формата : Да
Параметр ReFrames формата : 4 кадра
Идентификатор кодека : V_MPEG4/ISO/AVC
Продолжительность : 1 ч. 31 м.
Битрейт : 17,5 Мбит/сек
Ширина : 1920 пикселей
Высота : 1080 пикселей
Соотношение сторон : 16:9
Режим частоты кадров : Постоянный
Частота кадров : 23,976 кадра/сек
Цветовое пространство : YUV
Субдискретизация насыщенности : 4:2:0
Битовая глубина : 8 бит
Тип развёртки : Прогрессивная
Бит/(Пиксели*Кадры) : 0.352
Размер потока : 11,2 Гбайт (80%)
Заголовок : Release for HDCLUB
Библиотека кодирования : x264 core 129 r2230 1cffe9f
Настройки программы : cabac=1 / ref=4 / deblock=1:-3:-3 / analyse=0x3:0x113 / me=umh / subme=10 / psy=1 / psy_rd=1.00:0.05 / mixed_ref=1 / me_range=32 / chroma_me=1 / trellis=2 / 8x8dct=1 / cqm=0 / deadzone=21,11 / fast_pskip=0 / chroma_qp_offset=-3 / threads=12 / lookahead_threads=2 / sliced_threads=0 / nr=0 / decimate=1 / interlaced=0 / bluray_compat=0 / constrained_intra=0 / bframes=5 / b_pyramid=2 / b_adapt=2 / b_bias=0 / direct=3 / weightb=1 / open_gop=0 / weightp=2 / keyint=240 / keyint_min=23 / scenecut=40 / intra_refresh=0 / rc_lookahead=40 / rc=crf / mbtree=0 / crf=17.8 / qcomp=0.60 / qpmin=0 / qpmax=69 / qpstep=4 / vbv_maxrate=50000 / vbv_bufsize=62500 / crf_max=0.0 / nal_hrd=none / ip_ratio=1.40 / pb_ratio=1.30 / aq=2:0.70
Язык : English
Default : Да
Forced : Нет
Аудио #1
Идентификатор : 2
Формат : DTS
Формат/Информация : Digital Theater Systems
Режим : 16
Параметр Endianness формата : Big
Идентификатор кодека : A_DTS
Продолжительность : 1 ч. 31 м.
Вид битрейта : Постоянный
Битрейт : 1509 Кбит/сек
Каналы : 2 канала
Расположение каналов : Front: L R
Частота : 48,0 КГц
Битовая глубина : 24 бит
Метод сжатия : С потерями
Размер потока : 991 Мбайт (7%)
Заголовок : Двухголосый закадровый, CP Digital 2/0
Язык : Russian
Default : Да
Forced : Нет
Аудио #2
Идентификатор : 3
Формат : AC-3
Формат/Информация : Audio Coding 3
Расширение режима : CM (complete main)
Параметр Endianness формата : Big
Идентификатор кодека : A_AC3
Продолжительность : 1 ч. 31 м.
Вид битрейта : Постоянный
Битрейт : 448 Кбит/сек
Каналы : 6 каналов
Расположение каналов : Front: L C R, Side: L R, LFE
Частота : 48,0 КГц
Битовая глубина : 16 бит
Метод сжатия : С потерями
Размер потока : 294 Мбайт (2%)
Заголовок : Двухголосый закадровый, CP Digital 3/2+1
Язык : Russian
Default : Нет
Forced : Нет
Аудио #3
Идентификатор : 4
Формат : DTS
Формат/Информация : Digital Theater Systems
Режим : 16
Параметр Endianness формата : Big
Идентификатор кодека : A_DTS
Продолжительность : 1 ч. 31 м.
Вид битрейта : Постоянный
Битрейт : 1509 Кбит/сек
Каналы : 2 канала
Расположение каналов : Front: L R
Частота : 48,0 КГц
Битовая глубина : 24 бит
Метод сжатия : С потерями
Размер потока : 991 Мбайт (7%)
Заголовок : Original 2/0
Язык : English
Default : Нет
Forced : Нет
Аудио #4
Идентификатор : 5
Формат : AC-3
Формат/Информация : Audio Coding 3
Расширение режима : CM (complete main)
Параметр Endianness формата : Big
Идентификатор кодека : A_AC3
Продолжительность : 1 ч. 31 м.
Вид битрейта : Постоянный
Битрейт : 448 Кбит/сек
Каналы : 6 каналов
Расположение каналов : Front: L C R, Side: L R, LFE
Частота : 48,0 КГц
Битовая глубина : 16 бит
Метод сжатия : С потерями
Размер потока : 294 Мбайт (2%)
Заголовок : Original 3/2+1
Язык : English
Default : Нет
Forced : Нет
Текст
Идентификатор : 6
Формат : UTF-8
Идентификатор кодека : S_TEXT/UTF8
Идентификатор кодека/Информация : UTF-8 Plain Text
Язык : Russian
Default : Да
Forced : Нет
Меню
00:00:00.000 : en:Chapter 00
00:08:08.028 : en:Chapter 01
00:13:52.998 : en:Chapter 02
00:24:30.676 : en:Chapter 03
00:32:22.105 : en:Chapter 04
00:40:23.210 : en:Chapter 05
00:46:34.958 : en:Chapter 06
00:54:21.840 : en:Chapter 07
01:00:01.681 : en:Chapter 08
01:08:50.332 : en:Chapter 09
01:16:23.869 : en:Chapter 10
01:28:50.742 : en:Chapter 11

-
Цитата:

*** Сохранены оригинальные чаптеры как на Blu-ray.
*** Дорожка №1 получена наложением выделенных реплик на каналы декодированного DTS-HD MA. За выделение реплик огромное спасибо Pyha
*** Обращаю внимание что перевод в дорожках №1 и №2 совершенно идентичен. Вторая добавлена исключительно для тех кому, ну просто, обязателен многоканальный звук, это же распространяется и на дорожку №4.
*** По просторам интернета еще гуляет одна Двухголоска, которая является любительской, по этой причине она не вошла в данный релиз.
*** Описание сюжета с КиноПоиска. Очень примерно передает сюжет фильма, такое ощущение что кто писал его, фильм точно не смотрел, а ему кто то про него рассказывал.
Other forum [Profile] [PM]
Display posts from previous:    
Reply to topic

The time now is: Today 09:15

All times are GMT + 3 Hours



You cannot post new topics in this forum
You cannot reply to topics in this forum
You cannot edit your posts in this forum
You cannot delete your posts in this forum
You cannot vote in polls in this forum
You cannot attach files in this forum
You cannot download files in this forum