Today is a free download without charge Download

Универсальный солдат 4 / Universal Soldier: Day of Reckoning (Джон Хайамс / John Hyams) [2012, США, фантастика, боевик, триллер, BDRip 720p] Dub + Sub Eng + Original Eng

Reply to topic
 
Author
Message

Omen ®

Longevity: 8 years 5 months

Posts: 181087

Торрент-статистика

Post 03-Jan-2013 19:44

[Quote]

Универсальный солдат 4 / Universal Soldier: Day of Reckoning Страна: США
Студия: Signature Pictures
Жанр: фантастика, боевик, триллер
Год выпуска: 2012
Продолжительность: 01:53:37
Перевод: Профессиональный (дублированный)
Cубтитры: английские
Оригинальная аудиодорожка: английский
Режиссер: Джон Хайамс / John Hyams
В ролях: Жан-Клод Ван Дамм, Скотт Эдкинс, Андрей Орловский, Дольф Лундгрен, Кристофер Ван Варенберг, Джеймс Роулингс, Мария Боннер, Сигал Дайэмант, Рас Блэквелл, Дэвид Дженсен
Описание: Настоящее время. Программа «Unisol» по-прежнему актуальна и снова введена в эксплуатацию. Давним и непримиримым врагам времён Вьетнамской войны Эндрю Скотту и Люку Деверо суждено встретиться в очередной раз, дабы продолжить своё извечное противостояние и нескончаемую борьбу. Однако, новые опасности и трудности заставляют двух солдат на время объединиться пред лицом общей неприятности, что весьма ненадолго. Ясно одно: кровавый исход и брутальный финал неизбежен…

Тип релиза: BDRip 720p[DON]
Контейнер: MKV
Видео: AVC,1280x548,4513 kbps,23.976 fps
Аудио 1: Russian: 48 kHz, AC3, 3/2 (L,C,R,l,r) + LFE ch, ~448.00 kbps | R5|
Аудио 2: English: 48 kHz, DTS, 3/2 (L,C,R,l,r) + LFE ch, ~1536.00 kbps |Original|
Чаптеры:есть

MediaInfo

General
Unique ID : 224827964033714324201609849763627508284 (0xA9244A73A049E3B7B4EA44A12163A23C)
Complete name : D:\Рипы\Universal.Soldier.Day.Of.Reckoning.UNCUT.2012.720p.BluRay.DTS.x264-DON.mkv
Format : Matroska
Format version : Version 2
File size : 5.23 GiB
Duration : 1h 53mn
Overall bit rate : 6 589 Kbps
Movie name : -Talian-
Encoded date : UTC 2012-12-26 16:40:10
Writing application : mkvmerge v5.7.0 ('The Whirlwind') built on Jul 8 2012 20:08:51
Writing library : libebml v1.2.3 + libmatroska v1.3.0
Video
ID : 1
Format : AVC
Format/Info : Advanced Video Codec
Format profile : [email protected]
Format settings, CABAC : Yes
Format settings, ReFrames : 11 frames
Codec ID : V_MPEG4/ISO/AVC
Duration : 1h 53mn
Bit rate : 4 501 Kbps
Width : 1 280 pixels
Height : 548 pixels
Display aspect ratio : 2.35:1
Frame rate : 23.976 fps
Color space : YUV
Chroma subsampling : 4:2:0
Bit depth : 8 bits
Scan type : Progressive
Bits/(Pixel*Frame) : 0.268
Stream size : 3.57 GiB (68%)
Title : Universal.Soldier.Day.Of.Reckoning.UNCUT.2012.720p.BluRay.DTS.x264-DON
Writing library : x264 core 129 r2230kMod 1cffe9f
Encoding settings : cabac=1 / ref=11 / deblock=1:-3:-3 / analyse=0x3:0x113 / me=umh / subme=9 / psy=1 / fade_compensate=0.00 / psy_rd=1.05:0.00 / mixed_ref=1 / me_range=16 / chroma_me=1 / trellis=2 / 8x8dct=1 / cqm=0 / deadzone=21,11 / fast_pskip=0 / chroma_qp_offset=-2 / threads=6 / lookahead_threads=1 / sliced_threads=0 / nr=0 / decimate=0 / interlaced=0 / bluray_compat=0 / constrained_intra=0 / bframes=8 / b_pyramid=2 / b_adapt=2 / b_bias=0 / direct=3 / weightb=1 / open_gop=0 / weightp=2 / keyint=250 / keyint_min=23 / scenecut=40 / intra_refresh=0 / rc_lookahead=40 / rc=crf / mbtree=1 / crf=18.0000 / qcomp=0.80 / qpmin=0 / qpmax=69 / qpstep=4 / ip_ratio=1.20 / aq=3:1.00
Language : English
Default : No
Forced : No
Audio #1
ID : 2
Format : AC-3
Format/Info : Audio Coding 3
Mode extension : CM (complete main)
Format settings, Endianness : Big
Codec ID : A_AC3
Duration : 1h 53mn
Bit rate mode : Constant
Bit rate : 448 Kbps
Channel(s) : 6 channels
Channel positions : Front: L C R, Side: L R, LFE
Sampling rate : 48.0 KHz
Bit depth : 16 bits
Compression mode : Lossy
Stream size : 364 MiB (7%)
Title : DUB-R5
Language : Russian
Default : Yes
Forced : No
Audio #2
ID : 3
Format : DTS
Format/Info : Digital Theater Systems
Codec ID : A_DTS
Duration : 1h 53mn
Bit rate mode : Constant
Bit rate : 1 510 Kbps
Channel(s) : 6 channels
Channel positions : Front: L C R, Side: L R, LFE
Sampling rate : 48.0 KHz
Bit depth : 24 bits
Compression mode : Lossy
Stream size : 1.20 GiB (23%)
Title : Original
Language : English
Default : No
Forced : No
Text
ID : 4
Format : UTF-8
Codec ID : S_TEXT/UTF8
Codec ID/Info : UTF-8 Plain Text
Title : Sub
Language : English
Default : No
Forced : No
Menu
00:00:00.000 : en:00:00:00.000
00:06:36.104 : en:00:06:36.104
00:16:42.460 : en:00:16:42.460
00:23:33.078 : en:00:23:33.078
00:29:24.012 : en:00:29:24.012
00:37:57.192 : en:00:37:57.192
00:49:45.983 : en:00:49:45.983
00:59:27.230 : en:00:59:27.230
01:08:42.452 : en:01:08:42.452
01:18:18.903 : en:01:18:18.903
01:27:51.892 : en:01:27:51.892
01:34:59.861 : en:01:34:59.861
Source vs Encode



Other forum [Profile] [PM]
Display posts from previous:    
Reply to topic

The time now is: Today 09:43

All times are GMT + 3 Hours



You cannot post new topics in this forum
You cannot reply to topics in this forum
You cannot edit your posts in this forum
You cannot delete your posts in this forum
You cannot vote in polls in this forum
You cannot attach files in this forum
You cannot download files in this forum