Today is a free download without charge Download

Led Zeppelin - Celebration Day (Live at London O2 Arena 2007) [2012 г., Hard Rock, BDRip1080p]

Reply to topic
 
Author
Message

радист ®

Gender:

Longevity: 10 years

Posts: 164

Торрент-статистика

Post 02-Jan-2013 22:46

[Quote]

Led Zeppelin - Celebration Day (Live at London O2 Arena 2007)
Год выпуска: 2012
Страна: UK
Жанр: Hard Rock
Продолжительность: 02:04:00
Треклист:
1. Good Times Bad Times
2. Ramble On
3. Black Dog
4. In My Time Of Dying
5. For Your Life
6. Trampled Under Foot
7. Nobody s Fault But Mine
8. No Quarter
9. Since I ve Been Loving You
10. Dazed And Confused
11. Stairway To Heaven
12. The Song Remains The Same
13. Misty Mountain Hop
14. Kashmir
15. Whole Lotta Love
16. Rock And Roll

Описание: 10 декабря 2007г Led Zeppelin вышли на сцену лондонской O2 Arena и исполнили концерт в память Ахмета Эртегуна, одного из основателей Atlantic Records. Двухчасовое выступление группы, в числе зрителей которого были многие известные музыканты, получило наивысшие оценки музыкальных обозревателей. Группа порадовала фанатов своим неподражаемым звучанием, ставшим визитной карточкой Led Zeppelin.
К основным участникам Led Zeppelin Джону Пол Джонсу, Джимми Пейджу и Роберту Планту присоединился Джейсон Бонэм, сын их покойного барабанщика Джона Бонэма, для исполнения 16 песен из репертуара группы, в том числе таких знаменитых трэков, как «Whola Lotta Love», «Rock And Roll», «Kashmir» и «Stairway to Heaven».
По словам организаторов, на сайте, где можно было купить билеты на концерт Led Zeppelin, зарегистрировались 20 миллионов человек. Но только 18 тысячам счастливчиков удалось побывать на этом концерте.
«То, что Led Zeppelin сделали этим вечером, доказывает, они способны по-прежнему выступать на том уровне, который изначально обеспечил им статус легенды. Нам остается лишь надеяться, что мы увидели их не в последний раз»!

Качество: BDRip1080p
Формат: MKV
Видео кодек: MPEG-4 AVC/H.264
Аудио кодек: DTS
Видео: MPEG-4 AVC/H.264 ,~8561 Kbps ,1920x1080
Аудио: DTS ,1510 Kbps , 6ch

Скриншоты

MediaInfo

Код:
Общее
Уникальный идентификатор                 : 174699722038180874001029159504768184423 (0x836DF14DE7021FB1824F649E1D2CB067)
Полное имя                               : D:\tltorrent загрузки\sem-lzcd1080p.mkv
Формат                                   : Matroska
Версия формата                           : Version 2
Размер файла                             : 8,74 Гбайт
Продолжительность                        : 2 ч. 4 м.
Общий поток                              : 10,1 Мбит/сек
Дата кодирования                         : UTC 2012-11-15 19:53:01
Программа кодирования                    : mkvmerge v5.8.0 ('No Sleep / Pillow') built on Sep  2 2012 15:37:04
Библиотека кодирования                   : libebml v1.2.3 + libmatroska v1.3.0
Видео
Идентификатор                            : 1
Формат                                   : AVC
Формат/Информация                        : Advanced Video Codec
Профиль формата                          : [email protected]
Параметр CABAC формата                   : Да
Параметр ReFrames формата                : 4 кадра
Идентификатор кодека                     : V_MPEG4/ISO/AVC
Продолжительность                        : 2 ч. 4 м.
Битрейт                                  : 8561 Кбит/сек
Ширина                                   : 1920 пикселей
Высота                                   : 1080 пикселей
Соотношение сторон                       : 16:9
Частота кадров                           : 29,970 кадров/сек
Цветовое пространство                    : YUV
Субдискретизация насыщенности            : 4:2:0
Битовая глубина                          : 8 бит
Тип развёртки                            : Прогрессивная
Бит/(Пиксели*Кадры)                      : 0.138
Размер потока                            : 7,25 Гбайт (83%)
Заголовок                                : X264
Библиотека кодирования                   : x264 core 129 r2230 1cffe9f
Настройки программы                      : cabac=1 / ref=4 / deblock=1:0:0 / analyse=0x3:0x133 / me=umh / subme=7 / psy=1 / psy_rd=1.00:0.00 / mixed_ref=1 / me_range=16 / chroma_me=1 / trellis=1 / 8x8dct=1 / cqm=0 / deadzone=21,11 / fast_pskip=0 / chroma_qp_offset=-2 / threads=12 / lookahead_threads=2 / sliced_threads=0 / nr=0 / decimate=1 / interlaced=0 / bluray_compat=0 / constrained_intra=0 / bframes=3 / b_pyramid=2 / b_adapt=1 / b_bias=0 / direct=1 / weightb=1 / open_gop=0 / weightp=2 / keyint=250 / keyint_min=25 / scenecut=40 / intra_refresh=0 / rc_lookahead=40 / rc=2pass / mbtree=1 / bitrate=8561 / ratetol=1.0 / qcomp=0.60 / qpmin=0 / qpmax=69 / qpstep=4 / cplxblur=20.0 / qblur=0.5 / ip_ratio=1.40 / aq=1:1.00
Язык                                     : English
Default                                  : Да
Forced                                   : Нет
Аудио
Идентификатор                            : 2
Формат                                   : DTS
Формат/Информация                        : Digital Theater Systems
Идентификатор кодека                     : A_DTS
Продолжительность                        : 2 ч. 4 м.
Вид битрейта                             : Постоянный
Битрейт                                  : 1510 Кбит/сек
Каналы                                   : 6 каналов
Расположение каналов                     : Front: L C R, Side: L R, LFE
Частота                                  : 48,0 КГц
Битовая глубина                          : 16 бит
Метод сжатия                             : С потерями
Размер потока                            : 1,31 Гбайт (15%)
Заголовок                                : DTS
Язык                                     : English
Default                                  : Да
Forced                                   : Нет
Меню
00:00:00.000                             : en:00:00:00.000
00:01:44.104                             : en:00:01:44.104
00:04:53.994                             : en:00:04:53.994
00:10:36.302                             : en:00:10:36.302
00:16:30.957                             : en:00:16:30.957
00:28:22.200                             : en:00:28:22.200
00:35:17.148                             : en:00:35:17.148
00:42:18.536                             : en:00:42:18.536
00:49:16.453                             : en:00:49:16.453
00:58:40.984                             : en:00:58:40.984
01:07:04.821                             : en:01:07:04.821
01:18:58.267                             : en:01:18:58.267
01:27:47.162                             : en:01:27:47.162
01:34:24.626                             : en:01:34:24.626
01:39:32.533                             : en:01:39:32.533
01:49:38.005                             : en:01:49:38.005
01:58:02.275                             : en:01:58:02.275
02:03:08.514                             : en:02:03:08.514

_________________
Дураков на свете не много, но расставлены они так грамотно, что встречаются на каждом шагу.
Other forum [Profile] [PM]
Display posts from previous:    
Reply to topic

The time now is: Today 14:37

All times are GMT + 3 Hours



You cannot post new topics in this forum
You cannot reply to topics in this forum
You cannot edit your posts in this forum
You cannot delete your posts in this forum
You cannot vote in polls in this forum
You cannot attach files in this forum
You cannot download files in this forum