Today is a free download without charge Download

Каунт Бейси - 14 золотых мелодий 1 (1985) [FLAC 2.0 192/24|traсks(Vinil-Rip)]<Джаз>

Reply to topic
 
Author
Message

Koralina ®

Longevity: 9 years 4 months

Posts: 994

Location: Lithuania

Торрент-статистика

Post 02-Jan-2013 17:37

[Quote]

Каунт Бейси - 14 золотых мелодий 1 (1985)- Год: 1985
Жанр: Джаз
Продолжительность: 00:41:44
Кодек: FLAC
Битрейт: Lossless
Тип битрейта: VBR
Трек лист:
11. One Oclock Jump
12. Swingin At The Daisy Chain
13. Texas Shuffle
14. Time Out
15. Ты можешь положиться на меня
16. Panassie Stomp
17. Pennies From Heaven
21. Swingin The Blues
22. Blue And Sentimental
23. Johns Idea
24. Послал за тобой вчера, а ты пришла сегодня
25. Blame It On My Last Affair
26. Cherokee
27. В точности как ты

Дополнительная информация&#58;

Мелодия С60-18653-4
Ленинградский завод грампластинок
Изготовлено по лицензии фирмы Ariola-Eurodisc GmbH, Мюнхен
Записи 1930-х годов
Оцифровка собственная - два моно 192/34. Запись - Technics SL-D303, картридж AT15Sa, фонокорректор Pro-Ject Phono Box SE II, АЦП E-MU 0204, WaveLab5. Реставрация, мастеринг - Sound Forge 10, iZotope RX2.
Поздравляю всех с Новым Годом! Желаю творческих успехов и удачи!

Отчет MediaInfo&#58;

Общее
Полное имя : D:\Раздачи\Каунт Бейси\Четырнадцать золотых мелодий1\Четырнадцать золотых мелодий 1\11. One Oclock Jump.flac
Формат : FLAC
Формат/Информация : Free Lossless Audio Codec
Размер файла : 98,6 Мбайт
Продолжительность : 2 м. 54 с.
Режим общего битрейта : Переменный
Общий поток : 4753 Кбит/сек
Аудио
Формат : FLAC
Формат/Информация : Free Lossless Audio Codec
Продолжительность : 2 м. 54 с.
Вид битрейта : Переменный
Битрейт : 4753 Кбит/сек
Каналы : 2 канала
Частота : 192 КГц
Битовая глубина : 24 бит
Размер потока : 98,6 Мбайт (100%)
Библиотека кодирования : libFLAC 20080709 (UTC 2008-07-09)
Общее
Полное имя : D:\Раздачи\Каунт Бейси\Четырнадцать золотых мелодий1\Четырнадцать золотых мелодий 1\12. Swingin At The Daisy Chain.flac
Формат : FLAC
Формат/Информация : Free Lossless Audio Codec
Размер файла : 90,2 Мбайт
Продолжительность : 2 м. 41 с.
Режим общего битрейта : Переменный
Общий поток : 4701 Кбит/сек
Аудио
Формат : FLAC
Формат/Информация : Free Lossless Audio Codec
Продолжительность : 2 м. 41 с.
Вид битрейта : Переменный
Битрейт : 4700 Кбит/сек
Каналы : 2 канала
Частота : 192 КГц
Битовая глубина : 24 бит
Размер потока : 90,2 Мбайт (100%)
Библиотека кодирования : libFLAC 20080709 (UTC 2008-07-09)
Общее
Полное имя : D:\Раздачи\Каунт Бейси\Четырнадцать золотых мелодий1\Четырнадцать золотых мелодий 1\13. Texas Shuffle.flac
Формат : FLAC
Формат/Информация : Free Lossless Audio Codec
Размер файла : 103 Мбайт
Продолжительность : 2 м. 58 с.
Режим общего битрейта : Переменный
Общий поток : 4837 Кбит/сек
Аудио
Формат : FLAC
Формат/Информация : Free Lossless Audio Codec
Продолжительность : 2 м. 58 с.
Вид битрейта : Переменный
Битрейт : 4837 Кбит/сек
Каналы : 2 канала
Частота : 192 КГц
Битовая глубина : 24 бит
Размер потока : 103 Мбайт (100%)
Библиотека кодирования : libFLAC 20080709 (UTC 2008-07-09)
Общее
Полное имя : D:\Раздачи\Каунт Бейси\Четырнадцать золотых мелодий1\Четырнадцать золотых мелодий 1\14. Time Out.flac
Формат : FLAC
Формат/Информация : Free Lossless Audio Codec
Размер файла : 98,4 Мбайт
Продолжительность : 2 м. 54 с.
Режим общего битрейта : Переменный
Общий поток : 4745 Кбит/сек
Аудио
Формат : FLAC
Формат/Информация : Free Lossless Audio Codec
Продолжительность : 2 м. 54 с.
Вид битрейта : Переменный
Битрейт : 4744 Кбит/сек
Каналы : 2 канала
Частота : 192 КГц
Битовая глубина : 24 бит
Размер потока : 98,4 Мбайт (100%)
Библиотека кодирования : libFLAC 20080709 (UTC 2008-07-09)
Общее
Полное имя : D:\Раздачи\Каунт Бейси\Четырнадцать золотых мелодий1\Четырнадцать золотых мелодий 1\15. You Can Depend On Me.flac
Формат : FLAC
Формат/Информация : Free Lossless Audio Codec
Размер файла : 102 Мбайт
Продолжительность : 3 м. 4 с.
Режим общего битрейта : Переменный
Общий поток : 4650 Кбит/сек
Аудио
Формат : FLAC
Формат/Информация : Free Lossless Audio Codec
Продолжительность : 3 м. 4 с.
Вид битрейта : Переменный
Битрейт : 4650 Кбит/сек
Каналы : 2 канала
Частота : 192 КГц
Битовая глубина : 24 бит
Размер потока : 102 Мбайт (100%)
Библиотека кодирования : libFLAC 20080709 (UTC 2008-07-09)
Общее
Полное имя : D:\Раздачи\Каунт Бейси\Четырнадцать золотых мелодий1\Четырнадцать золотых мелодий 1\16. Panassie Stomp.flac
Формат : FLAC
Формат/Информация : Free Lossless Audio Codec
Размер файла : 90,4 Мбайт
Продолжительность : 2 м. 41 с.
Режим общего битрейта : Переменный
Общий поток : 4709 Кбит/сек
Аудио
Формат : FLAC
Формат/Информация : Free Lossless Audio Codec
Продолжительность : 2 м. 41 с.
Вид битрейта : Переменный
Битрейт : 4708 Кбит/сек
Каналы : 2 канала
Частота : 192 КГц
Битовая глубина : 24 бит
Размер потока : 90,4 Мбайт (100%)
Библиотека кодирования : libFLAC 20080709 (UTC 2008-07-09)
Общее
Полное имя : D:\Раздачи\Каунт Бейси\Четырнадцать золотых мелодий1\Четырнадцать золотых мелодий 1\17. Pennies From Heaven.flac
Формат : FLAC
Формат/Информация : Free Lossless Audio Codec
Размер файла : 97,9 Мбайт
Продолжительность : 2 м. 56 с.
Режим общего битрейта : Переменный
Общий поток : 4666 Кбит/сек
Аудио
Формат : FLAC
Формат/Информация : Free Lossless Audio Codec
Продолжительность : 2 м. 56 с.
Вид битрейта : Переменный
Битрейт : 4665 Кбит/сек
Каналы : 2 канала
Частота : 192 КГц
Битовая глубина : 24 бит
Размер потока : 97,9 Мбайт (100%)
Библиотека кодирования : libFLAC 20080709 (UTC 2008-07-09)
Общее
Полное имя : D:\Раздачи\Каунт Бейси\Четырнадцать золотых мелодий1\Четырнадцать золотых мелодий 1\21. Swingin The Blues.flac
Формат : FLAC
Формат/Информация : Free Lossless Audio Codec
Размер файла : 87,4 Мбайт
Продолжительность : 2 м. 37 с.
Режим общего битрейта : Переменный
Общий поток : 4672 Кбит/сек
Аудио
Формат : FLAC
Формат/Информация : Free Lossless Audio Codec
Продолжительность : 2 м. 37 с.
Вид битрейта : Переменный
Битрейт : 4671 Кбит/сек
Каналы : 2 канала
Частота : 192 КГц
Битовая глубина : 24 бит
Размер потока : 87,4 Мбайт (100%)
Библиотека кодирования : libFLAC 20080709 (UTC 2008-07-09)
Общее
Полное имя : D:\Раздачи\Каунт Бейси\Четырнадцать золотых мелодий1\Четырнадцать золотых мелодий 1\22. Blue And Sentimental.flac
Формат : FLAC
Формат/Информация : Free Lossless Audio Codec
Размер файла : 102 Мбайт
Продолжительность : 3 м. 3 с.
Режим общего битрейта : Переменный
Общий поток : 4681 Кбит/сек
Аудио
Формат : FLAC
Формат/Информация : Free Lossless Audio Codec
Продолжительность : 3 м. 3 с.
Вид битрейта : Переменный
Битрейт : 4680 Кбит/сек
Каналы : 2 канала
Частота : 192 КГц
Битовая глубина : 24 бит
Размер потока : 102 Мбайт (100%)
Библиотека кодирования : libFLAC 20080709 (UTC 2008-07-09)
Общее
Полное имя : D:\Раздачи\Каунт Бейси\Четырнадцать золотых мелодий1\Четырнадцать золотых мелодий 1\23. Johns Idea.flac
Формат : FLAC
Формат/Информация : Free Lossless Audio Codec
Размер файла : 95,0 Мбайт
Продолжительность : 2 м. 47 с.
Режим общего битрейта : Переменный
Общий поток : 4774 Кбит/сек
Аудио
Формат : FLAC
Формат/Информация : Free Lossless Audio Codec
Продолжительность : 2 м. 47 с.
Вид битрейта : Переменный
Битрейт : 4773 Кбит/сек
Каналы : 2 канала
Частота : 192 КГц
Битовая глубина : 24 бит
Размер потока : 95,0 Мбайт (100%)
Библиотека кодирования : libFLAC 20080709 (UTC 2008-07-09)
Общее
Полное имя : D:\Раздачи\Каунт Бейси\Четырнадцать золотых мелодий1\Четырнадцать золотых мелодий 1\24. Sent For You Yesterday And Here You Come Today.flac
Формат : FLAC
Формат/Информация : Free Lossless Audio Codec
Размер файла : 89,0 Мбайт
Продолжительность : 2 м. 48 с.
Режим общего битрейта : Переменный
Общий поток : 4442 Кбит/сек
Аудио
Формат : FLAC
Формат/Информация : Free Lossless Audio Codec
Продолжительность : 2 м. 48 с.
Вид битрейта : Переменный
Битрейт : 4441 Кбит/сек
Каналы : 2 канала
Частота : 192 КГц
Битовая глубина : 24 бит
Размер потока : 88,9 Мбайт (100%)
Библиотека кодирования : libFLAC 20080709 (UTC 2008-07-09)
Общее
Полное имя : D:\Раздачи\Каунт Бейси\Четырнадцать золотых мелодий1\Четырнадцать золотых мелодий 1\25. Blame It On My Last Affair.flac
Формат : FLAC
Формат/Информация : Free Lossless Audio Codec
Размер файла : 88,2 Мбайт
Продолжительность : 2 м. 38 с.
Режим общего битрейта : Переменный
Общий поток : 4684 Кбит/сек
Аудио
Формат : FLAC
Формат/Информация : Free Lossless Audio Codec
Продолжительность : 2 м. 38 с.
Вид битрейта : Переменный
Битрейт : 4683 Кбит/сек
Каналы : 2 канала
Частота : 192 КГц
Битовая глубина : 24 бит
Размер потока : 88,2 Мбайт (100%)
Библиотека кодирования : libFLAC 20080709 (UTC 2008-07-09)
Общее
Полное имя : D:\Раздачи\Каунт Бейси\Четырнадцать золотых мелодий1\Четырнадцать золотых мелодий 1\26. Cherokee.flac
Формат : FLAC
Формат/Информация : Free Lossless Audio Codec
Размер файла : 199 Мбайт
Продолжительность : 5 м. 55 с.
Режим общего битрейта : Переменный
Общий поток : 4703 Кбит/сек
Аудио
Формат : FLAC
Формат/Информация : Free Lossless Audio Codec
Продолжительность : 5 м. 55 с.
Вид битрейта : Переменный
Битрейт : 4703 Кбит/сек
Каналы : 2 канала
Частота : 192 КГц
Битовая глубина : 24 бит
Размер потока : 199 Мбайт (100%)
Библиотека кодирования : libFLAC 20080709 (UTC 2008-07-09)
Общее
Полное имя : D:\Раздачи\Каунт Бейси\Четырнадцать золотых мелодий1\Четырнадцать золотых мелодий 1\27. Exactly Like You.flac
Формат : FLAC
Формат/Информация : Free Lossless Audio Codec
Размер файла : 89,8 Мбайт
Продолжительность : 2 м. 39 с.
Режим общего битрейта : Переменный
Общий поток : 4738 Кбит/сек
Аудио
Формат : FLAC
Формат/Информация : Free Lossless Audio Codec
Продолжительность : 2 м. 39 с.
Вид битрейта : Переменный
Битрейт : 4737 Кбит/сек
Каналы : 2 канала
Частота : 192 КГц
Битовая глубина : 24 бит
Размер потока : 89,8 Мбайт (100%)
Библиотека кодирования : libFLAC 20080709 (UTC 2008-07-09)

_________________
Other forum [Profile] [PM]
Display posts from previous:    
Reply to topic

The time now is: Today 00:39

All times are GMT + 3 Hours



You cannot post new topics in this forum
You cannot reply to topics in this forum
You cannot edit your posts in this forum
You cannot delete your posts in this forum
You cannot vote in polls in this forum
You cannot attach files in this forum
You cannot download files in this forum