Today is a free download without charge Download

Михаил Задорнов. Все будет чики-пуки (2013.01.01) [2013 г., Юмор, SATRip]

Reply to topic
 
Author
Message

cergo ®

Gender:

Longevity: 9 years 6 months

Posts: 80

Нарушений: 2

Location: Стерлитамак-Сити

Торрент-статистика

Post 02-Jan-2013 16:57

[Quote]

-Михаил Задорнов. Все будет чики-пуки-- Производство: Россия
Жанр: Юмор
Год выпуска: 2013 г.
Продолжительность: 01:35:29

Российская премьера: 01 января 2013
Перевод: Не требуется
Режиссер: Телекомпания
: -В ролях: Михаил Задорнов-Описание: В новогоднем концерте «Все будет чики-пуки!!!» Михаил Задорнов анализирует все возрастающее влияние Интернета на молодежь, размышляет о спортивных баталиях ушедшего года, о политике и политиках, шоу-бизнесе и телевидении, о парадоксах образования.-Качество видео: SATRip
Формат видео: AVI
Видео кодек: XviD
Аудио кодек: MP3
Видео: 640x480 (1.33:1), 25 fps, XviD build 50 ~1494 kbps avg, 0.19 bit/pixel
Аудио: 48 kHz, MPEG Layer 3, 2 ch, ~128.00 kbps avg

Cубтитры: отсутствуют

Media Info

Общее
Полное имя : D:\Архив\ФИЛЬМЫ\Михаил Задорнов. Все будет чики-пуки (2013.01.01).avi
Формат : AVI
Формат/Информация : Audio Video Interleave
Размер файла : 1,09 Гбайт
Продолжительность : 1 ч. 35 м.
Общий поток : 1632 Кбит/сек
Программа кодирования : VirtualDubMod 1.5.10.2 (build 2542/release)
Библиотека кодирования : VirtualDubMod build 2542/release
Видео
Идентификатор : 0
Формат : MPEG-4 Visual
Профиль формата : Advanced [email protected]
Параметр BVOP формата : 2
Параметр QPel формата : Нет
Параметр GMC формата : Без точки перехода
Параметр матрицы формата : Default (MPEG)
Идентификатор кодека : XVID
Идентификатор кодека/Подсказка : XviD
Продолжительность : 1 ч. 35 м.
Битрейт : 1494 Кбит/сек
Ширина : 640 пикселей
Высота : 480 пикселей
Соотношение сторон : 4:3
Частота кадров : 25,000 кадров/сек
Цветовое пространство : YUV
Субдискретизация насыщенности : 4:2:0
Битовая глубина : 8 бит
Тип развёртки : Прогрессивная
Метод сжатия : С потерями
Бит/(Пиксели*Кадры) : 0.195
Размер потока : 1021 Мбайт (92%)
Библиотека кодирования : XviD 1.2.1 (UTC 2008-12-04)
Аудио
Идентификатор : 1
Формат : MPEG Audio
Версия формата : Version 1
Профиль формата : Layer 3
Режим : Joint stereo
Расширение режима : MS Stereo
Идентификатор кодека : 55
Идентификатор кодека/Подсказка : MP3
Продолжительность : 1 ч. 35 м.
Вид битрейта : Постоянный
Битрейт : 128 Кбит/сек
Каналы : 2 канала
Частота : 48,0 КГц
Метод сжатия : С потерями
Задержка видео : 8 мс.
Размер потока : 87,4 Мбайт (8%)
Выравнивание : Разделение по промежуткам
Продолжительность промежутка : 40 мс. (1,00 видеокадр)
Время предзагрузки промежутка : 500 мс.

Скриншоты

               
--

_________________
Other forum [Profile] [PM]
Similar theme
Forum Topic Author Torrent Replies Last Post
./templates/default/images/folder_dl.gif Обучающее видео Михаил Теремков | Угловой диван своими руками (2017) WEB-DLRip [H.264/1080p-LQ] }{@R0N
1 | 0

1 | 14405

22

2021-09-07 19:34
Lingvooooo Latest
Display posts from previous:    
Reply to topic

The time now is: Today 03:23

All times are GMT + 3 Hours



You cannot post new topics in this forum
You cannot reply to topics in this forum
You cannot edit your posts in this forum
You cannot delete your posts in this forum
You cannot vote in polls in this forum
You cannot attach files in this forum
You cannot download files in this forum