Today is a free download without charge Download

Призраки дома Винчестеров / Haunting of Winchester House (Марк Аткинс / Mark Atkins) [2009 г.] (Ужасы) [DVDRip] (MVO) [internal release]

Reply to topic
 
Author
Message

Omen ®

Longevity: 6 years 10 months

Posts: 181090

Торрент-статистика

Post 20-Apr-2011 18:21

[Quote]

--Призраки дома Винчестеров / Haunting of Winchester House-- Год выпуска: 2009
Мировая премьера: 29 сентября 2009
Производство: США
Жанр: Ужасы
Продолжительность: 1:22:08
Перевод: Профессиональный (многоголосый закадровый)

Режиссер: Марк Аткинс / Mark Atkins

В ролях: Лира Келлерман, Майкл Холмс, Kimberly Ables Jindra, Пэтти Робертс, Дженнифер Смарт, Rob Ullett, Дэвид Макинтайр, Savannah Schoenecker, Сари Шиэн, Риа Мейерс...

Описание: Оказавшись в стесненных обстоятельствах, семья Гринеров соглашается присматривать за старинным особняком, несмотря на дурную славу зловещего жилища. Въехав в огромный дом, они довольно быстро сталкиваются с истинными хозяевами дома! Побеспокоенные вторжением призраки обрушивают весь свой гнев на непрошенных жильцов. Пытаясь разгадать тайну старого особняка, Гринеры обращаются за помощью к исследователю паранормальных явлений…



Источник/Качество: DVDRip
Формат: AVI
Видео кодек: XviD
Аудио кодек: AC3
Видео: 720x400 (1.80:1), 25 fps, XviD build 50 ~2157 kbps avg, 0.30 bit/pixel
Аудио: 48 kHz, AC3 Dolby Digital, 2/0 (L,R) ch, ~192 kbps

Media Info

General
Complete name : C:\Users\Раздачи\Prizraki doma vin4esterov.2009.DVDRip.XviD.JRG.avi
Format : AVI
Format/Info : Audio Video Interleave
File size : 1.35 GiB
Duration : 1h 22mn
Overall bit rate : 2 359 Kbps
Writing application : VirtualDubMod 1.5.10.3 | (build 2550/release)
Writing library : VirtualDubMod build 2550/release
Video
ID : 0
Format : MPEG-4 Visual
Format profile : Advanced [email protected]
Format settings, BVOP : Yes
Format settings, QPel : No
Format settings, GMC : No warppoints
Format settings, Matrix : Default (MPEG)
Codec ID : XVID
Codec ID/Hint : XviD
Duration : 1h 22mn
Bit rate : 2 157 Kbps
Width : 720 pixels
Height : 400 pixels
Display aspect ratio : 16:9
Frame rate : 25.000 fps
Color space : YUV
Chroma subsampling : 4:2:0
Bit depth : 8 bits
Scan type : Progressive
Compression mode : Lossy
Bits/(Pixel*Frame) : 0.300
Stream size : 1.24 GiB (91%)
Writing library : XviD 1.2.1 (UTC 2008-12-04)
Audio
ID : 1
Format : AC-3
Format/Info : Audio Coding 3
Mode extension : CM (complete main)
Codec ID : 2000
Duration : 1h 22mn
Bit rate mode : Constant
Bit rate : 192 Kbps
Channel(s) : 2 channels
Channel positions : Front: L R
Sampling rate : 48.0 KHz
Bit depth : 16 bits
Compression mode : Lossy
Stream size : 113 MiB (8%)
Alignment : Split accross interleaves
Interleave, duration : 40 ms (1.00 video frame)
Interleave, preload duration : 500 ms

     


Last edited by Omen on 2011-09-03 15:20; edited 1 time in total
Other forum [Profile] [PM]
Display posts from previous:    
Reply to topic

The time now is: Today 05:02

All times are GMT + 3 Hours



You cannot post new topics in this forum
You cannot reply to topics in this forum
You cannot edit your posts in this forum
You cannot delete your posts in this forum
You cannot vote in polls in this forum
You cannot attach files in this forum
You cannot download files in this forum