Today is a free download without charge Download

Пять минаретов в Нью-Йорке / Five Minarets in New York (Махсун Кирмизигюл / Mahsun Kirmizigul) [2010 г.] (Драма) [DVDRip] (DVO) [internal release]

Reply to topic
 
Author
Message

Omen ®

Longevity: 6 years 8 months

Posts: 181090

Торрент-статистика

Post 20-Apr-2011 18:12

[Quote]

--Пять минаретов в Нью-Йорке / Five Minarets in New York-- Год выпуска: 2010
Мировая премьера: 3 ноября 2010
Производство: США Турция
Жанр: Драма
Продолжительность: 1:56:29
Перевод: Профессиональный (двухголосый закадровый)

Режиссер: Махсун Кирмизигюл / Mahsun Kirmizigul

В ролях: Халук Бильгинер, Дэнни Гловер, Джина Гершон, Махсун Кирмизигюл, Роберт Патрик, Мустафа Сандал, Скотт Уильям Уинтерс, Шарриефф Паг, Энгин Алтан, Джастин Котсонас...

Описание: Два турецких анти-террористических агента посланы в Нью-Йорк с миссией — вернуть на родину опасного исламского террориста, Даджала. По их данным он собирается устроить джихад в американском городе. Но парень на самом деле козел отпущения и, являясь богословом, никогда не был замечен в преступных намерениях и деяниях. Его жена верит в невиновность и борется за свободу мужа, так как знает — если его увезут в Турцию, она его больше никогда не увидит.



Источник/Качество: DVDRip
Формат: AVI
Видео кодек: XviD
Аудио кодек: AC3
Видео: 720x336 (2.14:1), 23.976 fps, XviD build 50 ~1580 kbps avg, 0.27 bit/pixel
Аудио: 48 kHz, AC3 Dolby Digital, 2/0 (L,R) ch, ~192 kbps

Media Info

General
Complete name : C:\Users\Раздачи\5minaretov.2010.DVDRip.XviD.JRG.avi
Format : AVI
Format/Info : Audio Video Interleave
File size : 1.45 GiB
Duration : 1h 56mn
Overall bit rate : 1 782 Kbps
Writing application : VirtualDubMod 1.5.10.3 | (build 2550/release)
Writing library : VirtualDubMod build 2550/release
Video
ID : 0
Format : MPEG-4 Visual
Format profile : Advanced [email protected]
Format settings, BVOP : Yes
Format settings, QPel : No
Format settings, GMC : No warppoints
Format settings, Matrix : Default (MPEG)
Codec ID : XVID
Codec ID/Hint : XviD
Duration : 1h 56mn
Bit rate : 1 580 Kbps
Width : 720 pixels
Height : 336 pixels
Display aspect ratio : 2.2:1
Frame rate : 23.976 fps
Color space : YUV
Chroma subsampling : 4:2:0
Bit depth : 8 bits
Scan type : Progressive
Compression mode : Lossy
Bits/(Pixel*Frame) : 0.272
Stream size : 1.29 GiB (89%)
Writing library : XviD 1.2.1 (UTC 2008-12-04)
Audio
ID : 1
Format : AC-3
Format/Info : Audio Coding 3
Mode extension : CM (complete main)
Codec ID : 2000
Duration : 1h 56mn
Bit rate mode : Constant
Bit rate : 192 Kbps
Channel(s) : 2 channels
Channel positions : Front: L R
Sampling rate : 48.0 KHz
Bit depth : 16 bits
Compression mode : Lossy
Stream size : 160 MiB (11%)
Alignment : Split accross interleaves
Interleave, duration : 42 ms (1.00 video frame)
Interleave, preload duration : 500 ms

       


Last edited by Omen on 2011-09-03 15:20; edited 2 times in total
Other forum [Profile] [PM]
Display posts from previous:    
Reply to topic

The time now is: Today 07:33

All times are GMT + 3 Hours



You cannot post new topics in this forum
You cannot reply to topics in this forum
You cannot edit your posts in this forum
You cannot delete your posts in this forum
You cannot vote in polls in this forum
You cannot attach files in this forum
You cannot download files in this forum