Today is a free download without charge Download

Отцы (Армен Назикян) [2010 г.] (Драма, криминал) [DVDRip] [internal release]

Reply to topic
 
Author
Message

Omen ®

Longevity: 8 years

Posts: 181087

Торрент-статистика

Post 20-Apr-2011 18:05

[Quote]

--Отцы-- Год выпуска: 2010
Производство: Россия
Жанр: Драма, криминал
Продолжительность: 1:30:12

Режиссер: Армен Назикян

В ролях: Сергей Горобченко, Дмитрий Марьянов, Ян Цапник, Никита Морозов, Александр Дробитько, Анатолий Кот, Дмитрий Лебедев, Виталий Горев...

Описание: Скромный учитель истории Александр Львов, счастливо женат на Анне, женщине с ребенком. Его приемный сын, 8-летний Ванька, давно стал Александру родным. Но вот возвращается из армии отслуживший по контракту десантник Вадим Котов, бывший муж Анны и родной отец Ваньки. Он хочет вернуть себе сына. У мужчин назревает серьезный конфликт.
Но их неожиданно объединяет общая беда: Ваньку похищают. Мальчишка дружит со своим тезкой, сыном местного бизнесмена Олега Хромова. И вот теперь Ваньку Львова похитили, явно перепутав с Ванькой Хромовым. Олег Хромов, понимая, что идет охота на его сына, соглашается помочь Львову и Котову найти Ваньку Львова. И еще он хочет понять, кто объявил ему войну и найти этого человека. Корни похищения уходят в непростое прошлое самого Олега Хромова.



Источник/Качество: DVDRip
Формат: AVI
Видео кодек: XviD
Аудио кодек: AC3
Видео: 720x416 (1.73:1), 25 fps, XviD build 50 ~2101 kbps avg, 0.28 bit/pixel
Аудио: 48 kHz, AC3 Dolby Digital, 2/0 (L,R) ch, ~192 kbps

Media Info

General
Complete name : C:\Users\Раздачи\ottsy.2010.DVDRip.XviD.JRG.avi
Format : AVI
Format/Info : Audio Video Interleave
File size : 1.45 GiB
Duration : 1h 30mn
Overall bit rate : 2 303 Kbps
Writing application : VirtualDubMod 1.5.10.3 | (build 2550/release)
Writing library : VirtualDubMod build 2550/release
Video
ID : 0
Format : MPEG-4 Visual
Format profile : Advanced [email protected]
Format settings, BVOP : Yes
Format settings, QPel : No
Format settings, GMC : No warppoints
Format settings, Matrix : Default (MPEG)
Codec ID : XVID
Codec ID/Hint : XviD
Duration : 1h 30mn
Bit rate : 2 101 Kbps
Width : 720 pixels
Height : 416 pixels
Display aspect ratio : 16:9
Frame rate : 25.000 fps
Color space : YUV
Chroma subsampling : 4:2:0
Bit depth : 8 bits
Scan type : Progressive
Compression mode : Lossy
Bits/(Pixel*Frame) : 0.281
Stream size : 1.32 GiB (91%)
Writing library : XviD 1.2.1 (UTC 2008-12-04)
Audio
ID : 1
Format : AC-3
Format/Info : Audio Coding 3
Mode extension : CM (complete main)
Codec ID : 2000
Duration : 1h 30mn
Bit rate mode : Constant
Bit rate : 192 Kbps
Channel(s) : 2 channels
Channel positions : Front: L R
Sampling rate : 48.0 KHz
Bit depth : 16 bits
Compression mode : Lossy
Stream size : 124 MiB (8%)
Alignment : Split accross interleaves
Interleave, duration : 40 ms (1.00 video frame)
Interleave, preload duration : 500 ms

     :


Last edited by Omen on 2011-09-05 08:16; edited 1 time in total
Other forum [Profile] [PM]
Display posts from previous:    
Reply to topic

The time now is: Today 11:05

All times are GMT + 3 Hours



You cannot post new topics in this forum
You cannot reply to topics in this forum
You cannot edit your posts in this forum
You cannot delete your posts in this forum
You cannot vote in polls in this forum
You cannot attach files in this forum
You cannot download files in this forum