Today is a free download without charge Download

Трасса 60 / Interstate 60 (Боб Гэйл / Bob Gale) [2002 г.] (фэнтези, комедия, приключения) [DVDRip-AVC] (AVO) [internal release]

Reply to topic
 
Author
Message

Omen ®

Longevity: 6 years 6 months

Posts: 181112

Торрент-статистика

Post 20-Apr-2011 17:51

[Quote]

--Трасса 60 / Interstate 60-- Год выпуска: 2002
Производство: США
Жанр: фэнтези, комедия, приключения
Продолжительность: 01:51:49
Перевод: Авторский (одноголосый) [Ю.Сербин]
Оригинальный аудиопоток: Английский

Режиссер: Боб Гэйл / Bob Gale

В ролях: Джеймс Марсден, Пол Брогрен, Кристофер Ллойд, Уэйн Робсон, Гари Олдман, Майкл Дж. Фокс, Мэттью Эдисон, Мелисса Эд, Джон Буржуа, Роз Майклс, Эми Стюарт

Описание: В легендах и мифах есть персонажи, главная задача которых — исполнять желания. У арабов — это джинны, у ирландцев — лепреконы, у китайцев — драконы, у европейцев — феи и лесные духи. А в Америке есть некто О. Ж. Грант — довольно странный и забавный человек, который тоже может исполнить любое Ваше желание. Но будьте осторожны — он очень проказлив! Вот его-то и встречает однажды Нейл Оливер. Нейл вполне доволен своей жизнью: у него обеспеченные родители, симпатичная невеста и впереди блестящая карьера юриста. Но с недавних пор по ночам ему стала сниться загадочная девушка, которую он никак не может выбросить из головы. Чудаковатый Грант приглашает Нейла совершить поездку по таинственной автостраде 60, которой нет ни на одной карте США. И Нейл бросает все и пускается в самое невероятное и рискованное путешествие в своей жизни, решив, во что бы то ни стало разыскать незнакомку из своих снов.



Источник/Качество: DVDRip-AVC
Формат: MKV
Видео кодек: H.26x
Аудио кодек: AC3
Видео: 1985 kbps, [email protected]х576, 25.000 fps
Аудио #1: 448 kbps (6 ch) 48 KHz - AVO [Ю.Сербин]
Аудио #2: 192 kbps (6 ch) 48 KHz - Eng --Фильм переведён и озвучен Юрием Сербиным
--

Media Info

General
Complete name : D:\Видео\Internal Release\Trassa_60.2002.x264.DVDRip.JRG.mkv
Format : Matroska
File size : 2.05 GiB
Duration : 1h 51mn
Overall bit rate : 2 628 Kbps
Encoded date : UTC 2011-04-14 22:33:32
Writing application : mkvmerge v4.1.1 ('Bouncin' Back') сборка от Jul 3 2010 22:54:08
Writing library : libebml v1.0.0 + libmatroska v1.0.0
Video
ID : 1
Format : AVC
Format/Info : Advanced Video Codec
Format profile : [url=mailto:[email protected]][email protected][/url]
Format settings, CABAC : Yes
Format settings, ReFrames : 11 frames
Muxing mode : Container [email protected]
Codec ID : V_MPEG4/ISO/AVC
Duration : 1h 51mn
Bit rate mode : Variable
Bit rate : 1 985 Kbps
Maximum bit rate : 40.0 Mbps
Width : 720 pixels
Height : 576 pixels
Display aspect ratio : 16:9
Frame rate : 25.000 fps
Standard : PAL
Color space : YUV
Chroma subsampling : 4:2:0
Bit depth : 8 bits
Scan type : Progressive
Bits/(Pixel*Frame) : 0.191
Stream size : 1.51 GiB (74%)
Title : The Jolly Roger for /*spam*/
Writing library : x264 core 113 r1884 7313bb5
Audio #1
ID : 2
Format : AC-3
Format/Info : Audio Coding 3
Mode extension : CM (complete main)
Muxing mode : Header stripping
Codec ID : A_AC3
Duration : 1h 51mn
Bit rate mode : Constant
Bit rate : 448 Kbps
Channel(s) : 6 channels
Channel positions : Front: L C R, Side: L R, LFE
Sampling rate : 48.0 KHz
Bit depth : 16 bits
Stream size : 358 MiB (17%)
Title : Ю.Сербин
Language : Russian
Audio #2
ID : 3
Format : AC-3
Format/Info : Audio Coding 3
Mode extension : CM (complete main)
Muxing mode : Header stripping
Codec ID : A_AC3
Duration : 1h 51mn
Bit rate mode : Constant
Bit rate : 192 Kbps
Channel(s) : 6 channels
Channel positions : Front: L C R, Side: L R, LFE
Sampling rate : 48.0 KHz
Bit depth : 16 bits
Stream size : 154 MiB (7%)
Language : English

Скриншоты

     

Полноразмерные

     


Last edited by Omen on 2011-09-03 15:01; edited 1 time in total
Other forum [Profile] [PM]
Display posts from previous:    
Reply to topic

The time now is: Today 18:02

All times are GMT + 3 Hours



You cannot post new topics in this forum
You cannot reply to topics in this forum
You cannot edit your posts in this forum
You cannot delete your posts in this forum
You cannot vote in polls in this forum
You cannot attach files in this forum
You cannot download files in this forum