Today is a free download without charge Download

Снежная королева (Елена Райская)[2006 , Мелодрама] SATRip

Reply to topic
 
Author
Message

DeadMmau5 ®

Gender:

Longevity: 8 years 1 month

Posts: 155

Location: Поскот

Торрент-статистика

Post 01-Jan-2013 21:37

[Quote]

Снежная королева - Производство: Россия / Централ Партнершип
Год выпуска: 2006
Жанр: Мелодрама
Описание фильма:
Старая сказка на новый лад. Жили-были в Москве Кай и Грета. Были они молоды и красивы, дружили с детства и собирались пожениться. Но во время предсвадебной поездки Кай случайно увидел холодную красавицу и влюбился. Он бросил Грету и запретил его искать. Но Грета не послушалась и поехала спасать своего любимого…
Режиссер: Елена Райская
Актеры: Марат Башаров, Агнесса Зелтыня, Яна Райская, Регина Мянник, Лариса Исаева, Андрей Подошьян
Продолжительность: 01:39:51
Премьера (РФ) 15 ноября 2007

Трейлер
Видеокодек: Xvid
Битрейт видео: ~1882 Кбит/сек
Размер кадра: 704x400
Качество видео: SATRip
Аудиокодек: AC3 2 канала
Битрейт аудио: 192 Кбит/сек

MediaInfo:

Общее
Полное имя : Снежная королева.2006.SATRip.avi
Формат : AVI
Формат/Информация : Audio Video Interleave
Размер файла : 1,45 Гбайт
Продолжительность : 1 ч. 39 м.
Общий поток : 2084 Кбит/сек
Программа кодирования : VirtualDubMod 1.5.10.3 | www.virtualdub-fr.org || (build 2550/release)
Библиотека кодирования : VirtualDubMod build 2550/release
Видео
Идентификатор : 0
Формат : MPEG-4 Visual
Профиль формата : Advanced [email protected]
Параметр BVOP формата : 1
Параметр QPel формата : Нет
Параметр GMC формата : Без точки перехода
Параметр матрицы формата : Выборочная
Идентификатор кодека : XVID
Идентификатор кодека/Подсказка : XviD
Продолжительность : 1 ч. 39 м.
Битрейт : 1882 Кбит/сек
Ширина : 704 пикселя
Высота : 400 пикселей
Соотношение сторон : 16:9
Частота кадров : 25,000 кадров/сек
Цветовое пространство : YUV
Субдискретизация насыщенности : 4:2:0
Битовая глубина : 8 бит
Тип развёртки : Прогрессивная
Метод сжатия : С потерями
Бит/(Пиксели*Кадры) : 0.267
Размер потока : 1,31 Гбайт (90%)
Библиотека кодирования : XviD 65
Аудио
Идентификатор : 1
Формат : AC-3
Формат/Информация : Audio Coding 3
Расширение режима : CM (complete main)
Параметр Endianness формата : Big
Идентификатор кодека : 2000
Продолжительность : 1 ч. 39 м.
Вид битрейта : Постоянный
Битрейт : 192 Кбит/сек
Каналы : 2 канала
Расположение каналов : Front: L R
Частота : 48,0 КГц
Битовая глубина : 16 бит
Метод сжатия : С потерями
Размер потока : 137 Мбайт (9%)
Выравнивание : Разделение по промежуткам
Продолжительность промежутка : 40 мс. (1,00 видеокадр)
Время предзагрузки промежутка : 500 мс.

Рейтинг MPAA:

Рейтинг PG-13 - Детям до 13 лет просмотр не желателен


Настоятельное предупреждение родителям. Данный рейтинг получают фильмы, содержание которых может считаться неприемлемым для детей, не достигших 13-летнего возраста. По-прежнему, при этом рейтинге на экране отсутствуют сцены с насилием и обнажёнкой, но уже могут присутствовать неконкретизированные эпизоды с наркотиками и слова, связанные с сексом.
Скриншоты:
       

_________________
Other forum [Profile] [PM]
Display posts from previous:    
Reply to topic

The time now is: Today 17:04

All times are GMT + 3 Hours



You cannot post new topics in this forum
You cannot reply to topics in this forum
You cannot edit your posts in this forum
You cannot delete your posts in this forum
You cannot vote in polls in this forum
You cannot attach files in this forum
You cannot download files in this forum