Today is a free download without charge Download

ДДТ на Дожде [2013, Rok, DVB 1080i]

Reply to topic
 
Author
Message

Omen ®

Longevity: 8 years 3 months

Posts: 181087

Торрент-статистика

Post 01-Jan-2013 15:32

[Quote]

ДДТ на Дожде
Жанр: Roсk
Продолжительность: 01:17:53
Год выпуска: 2013
Описание: ПРАЗДНИЧНЫЙ КОНЦЕРТ ГРУППЫ «ДДТ» /// Впервые
Группа, которая ни разу за все время своего существования не давала новогодних концертов, выступит в эфире ДОЖДЯ.
Качество: DVB 1080i
Контейнер: TS
Видео кодек: AVC
Аудио кодек: AAC
Видео: AVC, 1920х1080, 16:9, 6073 Кбит/сек, 25 fps
Аудио: MPEG Audio, 192 Кбит/сек, 48 КГц, 2 канала

Отчёт MediaInfo / BDInfo

ОбщееИдентификатор : 16 (0x10)Полное имя : The concert of the Rain DDT.tsФормат : MPEG-TSРазмер файла : 3,59 ГбайтПродолжительность : 1 ч. 17 м.Режим общего битрейта : ПеременныйОбщий поток : 6592 Кбит/сек
ВидеоИдентификатор : 2151 (0x867)Идентификатор меню : 21005 (0x520D)Формат : AVCФормат/Информация : Advanced Video CodecПрофиль формата : [email protected]Параметр CABAC формата : ДаПараметр ReFrames формата : 4 кадраИдентификатор кодека : 27Продолжительность : 1 ч. 17 м.Битрейт : 6073 Кбит/секШирина : 1920 пикселейВысота : 1080 пикселейСоотношение сторон : 16:9Частота кадров : 25,000 кадров/секСтандарт вещания : PALЦветовое пространство : YUVСубдискретизация насыщенности : 4:2:0Битовая глубина : 8 битТип развёртки : ЧересстрочнаяПорядок развёртки : Верхнее поле первоеБит/(Пиксели*Кадры) : 0.117Размер потока : 3,30 Гбайт (92%)Основные цвета : BT.709Характеристики трансфера : BT.709Коэффициенты матрицы : BT.709
АудиоИдентификатор : 2152 (0x868)Идентификатор меню : 21005 (0x520D)Формат : MPEG AudioВерсия формата : Version 1Профиль формата : Layer 2Идентификатор кодека : 4Продолжительность : 1 ч. 17 м.Вид битрейта : ПостоянныйБитрейт : 192 Кбит/секКаналы : 2 каналаЧастота : 48,0 КГцМетод сжатия : С потерямиЗадержка видео : 32 мс.Размер потока : 107 Мбайт (3%)Язык : stdЯзык, дополнительно : Clean effects

Скриншоты

Other forum [Profile] [PM]

slavaWWW

Longevity: 8 years 8 months

Posts: 2

Торрент-статистика

Post 01-Jan-2013 21:17 (after 5 hours)

[Quote]

спасибо автору,видео и звук всё на высоте!
Other forum [Profile] [PM]
Display posts from previous:    
Reply to topic

The time now is: Today 11:15

All times are GMT + 3 Hours



You cannot post new topics in this forum
You cannot reply to topics in this forum
You cannot edit your posts in this forum
You cannot delete your posts in this forum
You cannot vote in polls in this forum
You cannot attach files in this forum
You cannot download files in this forum