Today is a free download without charge Download

Уральские пельмени. Снега и Зрелищ! (2012.12.31) SATRip

Reply to topic
 
Author
Message

Omen ®

Longevity: 9 years 1 month

Posts: 181086

Торрент-статистика

Post 01-Jan-2013 13:39

[Quote]

Уральские пельмени. Снега и Зрелищ! -
Режиссер / Телекомпания: СТС
Русское название: Уральские Пельмени
Год выпуска: 2012
Жанр: Телепередача
В ролях:
Дмитрий Брекоткин, Сергей Ершов, Сергей Исаев, Сергей Калугин, Вячеслав Мясников, Сергей Нетиевский, Александр Попов, Андрей Рожков, Сергей Светлаков, Дмитрий Соколов, Максим Ярица, Юля Михалкова
Описание:
Весёлые парни в мандариновых рубашках не дадут соскучиться и подарят отличное настроение всей семье. У юмора «Уральских пельменей» нет возрастных ограничений, они избегают «шуток ниже пояса» и на их концертах пятилетние дети смеются рядом с 50-ти летними взрослыми. Новое комедийное шоу включает в себя как самостоятельные сценические истории, так и импровизации с залом, а также смешные сценки со звёздами, которые пришли посмотреть на любимую команду и неожиданно для себя оказались на сцене.
Не пропусти новое шоу:
- Почему Санта Клаус приезжает на оленях, а Дед Мороз приходит на автопилоте?
- Почему Снегурочка – это самая глухая девочка в мире, и чтобы до неё докричаться, надо пару десятков детей?
- Почему дети бегают и резвятся вокруг заживо срубленного дерева, и всё это называется праздником?
Все это в новогодней программе «Шоу Уральские пельмени» «СНЕГА и ЗРЕЛИЩ!» 16-17 ноября во дворце молодежи Екатеринбурга. Билеты в интернете и кассах города «Е»
Встреть новый 2013 год уже в ноябре с Пельменями!
По данным опроса ВЦИОМ 30% фирм пользуются услугами креативных агентств при разработке сценария Новогоднего праздника, остальные же 70% продолжают доверять водке!
1 января – официально назван днем водки. Водка — единственное разрешенное оружие массового поражения, но что удивительно - на утро является еще и гуманитарной помощью.
Вся молодежь на Новом году танцует под алкоголем и только сын Геннадия Малахова под отваром волчьих ягод и мать-и-мачехи.
Как встретишь новый год, так его и проведешь. Создается впечатление , что Филипп Киркоров, Максим Галкин и Николай Басков в новый год сидят на даче у Дерипаски в шоколадном креме.
-В Верхотурье во время празднования Нового Года, из-за срезанных проводов не было электричества. Но жители вышли из этой ситуации. Они ночью включили газовые плиты, и, как ни в чём не бывало, смотрели голубой огонёк.
Продолжительность: 01:34:37
Видеокодек: XviD
Битрейт видео: ~1500 кбит/сек
Размер кадра: 704 x 400
Качество видео: SATRip
Аудиокодек: MP3, 2ch.
Битрейт аудио: 128 кбит/сек

MediaInfo

Формат : AVI
Формат/Информация : Audio Video Interleave
Размер файла : 1,09 Гбайт
Продолжительность : 1 ч. 34 м.
Общий поток : 1638 Кбит/сек
Библиотека кодирования : VirtualDub build 32706/release
Видео
Идентификатор : 0
Формат : MPEG-4 Visual
Профиль формата : Advanced [email protected]
Параметр BVOP формата : 2
Параметр QPel формата : Нет
Параметр GMC формата : Без точки перехода
Параметр матрицы формата : Default (MPEG)
Идентификатор кодека : XVID
Идентификатор кодека/Подсказка : XviD
Продолжительность : 1 ч. 34 м.
Битрейт : 1501 Кбит/сек
Ширина : 704 пикселя
Высота : 400 пикселей
Соотношение сторон : 16:9
Частота кадров : 25,000 кадров/сек
Цветовое пространство : YUV
Субдискретизация насыщенности : 4:2:0
Битовая глубина : 8 бит
Тип развёртки : Прогрессивная
Метод сжатия : С потерями
Бит/(Пиксели*Кадры) : 0.213
Размер потока : 1020 Мбайт (92%)
Библиотека кодирования : XviD 1.2.1 (UTC 2008-12-04)
Аудио
Идентификатор : 1
Формат : MPEG Audio
Версия формата : Version 1
Профиль формата : Layer 3
Режим : Joint stereo
Расширение режима : MS Stereo
Идентификатор кодека : 55
Идентификатор кодека/Подсказка : MP3
Продолжительность : 1 ч. 34 м.
Вид битрейта : Постоянный
Битрейт : 128 Кбит/сек
Каналы : 2 канала
Частота : 48,0 КГц
Метод сжатия : С потерями
Размер потока : 87,0 Мбайт (8%)
Выравнивание : Разделение по промежуткам
Продолжительность промежутка : 40 мс. (1,00 видеокадр)
Время предзагрузки промежутка : 500 мс.
Скриншоты:
                   
Other forum [Profile] [PM]
Display posts from previous:    
Reply to topic

The time now is: Today 15:54

All times are GMT + 3 Hours



You cannot post new topics in this forum
You cannot reply to topics in this forum
You cannot edit your posts in this forum
You cannot delete your posts in this forum
You cannot vote in polls in this forum
You cannot attach files in this forum
You cannot download files in this forum